WK綜合論壇, WK综合论坛

查看:5221 回復:11 發表於 2018-3-19 04:02:07
本主題由 212love 於 2018-3-16 09:59 解除高亮
累計簽到︰1470 天
連續簽到︰17 天
發表於 2018-3-14 10:01:56 | 顯示全部樓層 |閱讀模式

墓的入侵者 Tomb.Invader, 2018.[MKV/3.24GB] [複製鏈接]

影視分享
分類: 電影
題材: 動作 
地區: 美國 
語言: 英语 
格式: MKV 
年份: 2018
資源: BT资源
1.jpg 7 t) L5 x! D$ @8 s

" c  S5 c/ l; \% B7 N4 d: s◎译  名 墓的入侵者+ I" y5 e* ~* a. x0 E, P
◎片  名 Tomb Invader/ J& t; k( A4 N! _* r
◎年  代 2018
. t3 c3 L5 b5 g3 f0 ]% x◎产  地 美国3 J6 _: S: D& a2 q
◎类  别 动作# l- ?- M2 t& ^1 r  I0 L0 W
◎语  言 英语, j% k1 J' f9 @( W
◎IMDb评分  N/A; `9 [2 \5 Z  n6 P) O* n' T1 U
◎IMDb链接  http://www.imdb.com/title/tt7781732/
5 u! e4 g  s  K6 I◎片  长 1h 23mn
8 a+ o) O* p8 T5 n$ F* R◎导  演 James Thomas
0 d* ?. h# {- `◎主  演 Gina Vitori ...Alabama Channing
$ Z: {% d( O$ v- [9 {      Samantha Bowling ...Helena
; w* {( }! \) y5 j; v6 _      Andrew J Katers ...Nathan! `$ u- n8 D' T/ y6 B
      Evan Sloan ...Tim Parker2 Z& g* _, q- v& a! J& V
      Shawn McConnell ...Bennie Blum% O) Q) ?) @7 r% Z) z
      Tammy Klein ...Julie Channing* ?8 ]  q; E8 [4 j7 n1 l. w
      Kate Watson ...Michelle' V+ n) W  n: G" {
9 @3 W, L- B4 W# Q
◎简  介1 y$ k6 X% f- e; O0 l6 r

, n7 V7 B3 u- O" h/ j8 U+ U  A group of College kids find clues leading them to an ancient tomb somewhere deep in the jungle. Relics from the past bring these young adventurers closer to their goal and even closer to finding the truth of a missing family member.: ]+ I& D9 d% I7 Y9 w0 F

9 I, v2 M, Z% ?! |
CODE:
# z. z3 s4 W5 n: l- x+ z' \5 R! e3 S6 e
4 x4 J1 k+ j6 R+ D2 X. n, o  v3 u$ ?

2 T1 R: N; X+ t  Y0 VVideo
' z3 E' D6 w% k# k! xID                                       : 1! [0 j( a* M8 Q% p
Format                                   : AVC9 W4 d' i1 J/ w8 S5 H( K- }
Format/Info                              : Advanced Video Codec" d; R0 E7 X, I1 j4 q' w: M9 K
Format profile                           : High@L4
" n+ A) x; w. \% s. p. c1 Y1 uFormat settings                          : CABAC / 4 Ref Frames
$ B, r" l8 D$ ~  [Format settings, CABAC                   : Yes. ^. U  I/ ^+ }7 O2 B3 x' f+ B" h* h
Format settings, ReFrames                : 4 frames
/ J, Z8 r- v: S( m  cCodec ID                                 : V_MPEG4/ISO/AVC" z( J% k) c) A9 }2 U
Duration                                 : 1 h 23 min& P7 f5 o: {3 a$ g. H- ?
Bit rate                                 : 5 195 kb/s/ g: u& }9 r- p( L, }: d
Width                                    : 1 916 pixels
: [! \9 y, U0 @0 e" DHeight                                   : 1 076 pixels
9 m7 g# w" m& x8 i1 oDisplay aspect ratio                     : 16:9; M) k, ^/ Y4 f: J/ \
Frame rate mode                          : Constant
$ Z0 w$ k+ h: a( g2 UFrame rate                               : 23.976 (23976/1000) FPS
( Q' m5 Q6 p! I! R9 D3 k$ QColor space                              : YUV
- |% w4 G# [# |6 m4 D) wChroma subsampling                       : 4:2:0
/ I8 o3 {" A# N1 R( FBit depth                                : 8 bits; H4 e2 v. s; B
Scan type                                : Progressive
1 J6 w% F/ u5 Y" l6 ABits/(Pixel*Frame)                       : 0.105
/ A" Q% n4 u, X, ^1 dStream size                              : 3.01 GiB (93%)
" s7 ?; t$ l. k" Q. A+ KTitle                                    : Tomb.Invader.2018.1080p.WEB-DL.DD5.1.H.264-FGT
8 i( x8 A4 N9 F- J0 f* w* T3 SLanguage                                 : English
- }& O. \- p$ J* u' ^3 `Default                                  : Yes% e* A! O7 r5 H2 e9 `% x
Forced                                   : No
) T% h+ d7 x7 y6 ^4 _Color range                              : Limited6 u+ E% T' H# v7 v; K
Color primaries                          : BT.709
7 q6 U/ T. N9 ^, FTransfer characteristics                 : BT.7096 j" d, S& u; H$ H
Matrix coefficients                      : BT.7097 P7 E" `, m) F: e

; j+ [( v3 _7 }" p6 GAudio# Z+ I  l: e; q8 H: i8 V
ID                                       : 2* r3 {% j) q) T5 x% l0 W; Y( e: {
Format                                   : AC-3
) x5 V) f1 T: B' }& pFormat/Info                              : Audio Coding 3) N8 U4 s1 v9 J5 ^' G
Codec ID                                 : A_AC3
5 y7 C/ @  q! S* _( x5 h$ _Duration                                 : 1 h 23 min
! l! o0 A- [& |. gBit rate mode                            : Constant
7 L+ N6 s  M7 F% f* u$ BBit rate                                 : 384 kb/s$ u# u6 t9 O8 K/ p0 l
Channel(s)                               : 6 channels! z+ ~4 B# K3 E$ u( ]
Channel positions                        : Front: L C R, Side: L R, LFE
$ [" }  m1 O7 H% t* |- }+ uSampling rate                            : 48.0 kHz
$ r5 t9 o% Z: Q& `3 DFrame rate                               : 31.250 FPS (1536 SPF)# |& Q  n, E$ K1 H
Bit depth                                : 16 bits, V2 z. U. [. n! a* r
Compression mode                         : Lossy/ a* l" G( z+ |; f' P: g7 \
Stream size                              : 228 MiB (7%)  z( i8 c2 T! q& y% N
Title                                    : Tomb.Invader.2018.1080p.WEB-DL.DD5.1.H.264-FGT# y" p! ^6 \  i. g% }
Language                                 : English
  W/ S3 C8 P* i% C/ J5 J, PService kind                             : Complete Main
) }' t' U' M* R) R' r- j% NDefault                                  : Yes
  u' V7 W2 K7 E$ IForced                                   : No1 g! I3 B1 [* e: y1 U9 `+ H6 F. u+ z2 V

; o' {5 r5 m& EText
. @$ @4 U3 o9 a2 ^ID                                       : 3- r' @3 i* w3 A( j1 e) q
Format                                   : UTF-86 A' |0 {# R! w& m# l0 s0 K" B
Codec ID                                 : S_TEXT/UTF86 i5 ]$ v& ~/ V" G
Codec ID/Info                            : UTF-8 Plain Text" E: Z4 l! f9 W3 }/ l) G
Duration                                 : 1 h 19 min) k0 E5 T- m7 s7 n+ T: N- O2 v; a5 u
Bit rate                                 : 63 b/s
' N" ?5 ?  a9 y) t' _Count of elements                        : 1256
) S9 F1 y6 K* B7 Q2 R0 uStream size                              : 37.1 KiB (0%)) _) S: i5 N; U* U1 \+ l
Language                                 : English9 ?2 Y% X8 H* e+ B$ U
Default                                  : Yes# c1 S  C) }2 Z& b; l+ y  j
Forced                                   : No! j3 G! A2 m1 ~' P+ f1 ?  T9 _
% |- [8 V; `) H3 V$ L/ ]9 [
Menu0 X! g; c, v- @* g' @9 o/ t0 K6 r; t
00:00:00.000                             : en:1
( M: C5 A0 N$ g9 [& `00:11:12.000                             : en:2
4 ^" y8 C1 R1 I4 v& D, h" o1 |0 d00:21:03.000                             : en:3- a! o) h6 ?. `' f
00:31:26.000                             : en:45 n% I4 M0 I7 _6 {9 f3 ^  n
00:40:30.000                             : en:5
. M6 T. m5 y) K" ?1 V$ k00:50:03.000                             : en:6
4 j) @1 O( b; t% m4 E: ]. N01:00:53.000                             : en:7
( e% d# E  F$ W01:12:07.000                             : en:8
, x0 |- }1 T8 o* ~: R* d$ z01:19:44.000                             : en:9
1 q8 R0 i2 T: }$ I, h" O; ~$ ^

3 Z( r2 q" N! Y( D+ u& e9 T" E9 o! k0 K

, j5 T  s1 C4 ^4 C; a  h9 E1 r+ k. o. q6 G( c5 J

4 j# Q3 b& S. ?
! ?7 b5 J1 T; i( d( Z

墓的入侵者 MKV.torrent

65.3 KB, 下載次數: 321

尚未簽到

發表於 2018-3-14 10:02:56 | 顯示全部樓層
絕對的好貼!謝謝啊!逐字逐圖地看完這個帖子以後,我的心久久不能平靜,感恩啊!
累計簽到︰130 天
連續簽到︰1 天
發表於 2018-3-14 14:13:33 | 顯示全部樓層
這個我收藏了!謝謝分享!WK的資源越來越豐富,這少不了大大的辛勞!
累計簽到︰1158 天
連續簽到︰15 天
發表於 2018-3-14 15:05:20 | 顯示全部樓層
感謝大大的辛勞分享!我會繼續在WK關注大大的文章!
累計簽到︰914 天
連續簽到︰1 天
發表於 2018-3-14 23:52:10 | 顯示全部樓層
感謝大大的辛勞分享!我會繼續在WK關注大大的文章!
累計簽到︰204 天
連續簽到︰1 天
發表於 2018-3-15 00:12:08 | 顯示全部樓層
偶像^^小生一直都在關注你的原創!小生對你之仰慕如滔滔江水連綿不絕!

尚未簽到

發表於 2018-3-16 02:55:11 | 顯示全部樓層
這個我收藏了!謝謝分享!WK的資源越來越豐富,這少不了大大的辛勞!

尚未簽到

發表於 2018-3-16 11:00:49 | 顯示全部樓層
這個我收藏了!謝謝分享!WK的資源越來越豐富,這少不了大大的辛勞!

尚未簽到

發表於 2018-3-17 09:11:47 來自手機 | 顯示全部樓層
精妙絕倫的精品,感謝啊!期待你更多更好的創作哦!

尚未簽到

發表於 2018-3-19 04:02:07 | 顯示全部樓層
精妙絕倫的精品,感謝啊!期待你更多更好的創作哦!

回復樓主 親!! 下午好,中午養足了精神嗎?讓我們一起渡過下午茶時間,WK有您更精彩!

 分享同時學會感恩,一句感謝的話語,就是最大的支持!  歡迎交流討論
您需要登錄後才可以回帖 登錄 | 立即注册

本版積分規則

c重要聲明:本論壇是以即時上載言論的方式運作,WK論壇對所有言論的真實性、立場及版權等,不負任何法律責任。而一切言論只代表發佈者個人意見,並非本網站之立場,讀者及用戶務必自行判斷內容之真實性。 由於本論壇受到「即時上載言論」運作方式所規限,故不能完全監察所有言論,若讀者及用戶發現有內容出現「真實性、立場及版權」等問題,請聯絡我們:info@waikeung.net論壇有權刪除任何言論(刪除前或不會作事先警告及通知)| SiteMap[網站地圖]

發表新帖 返回頂部