WK綜合論壇, WK综合论坛

查看:5303 回復:11 發表於 2018-3-19 04:02:07
本主題由 212love 於 2018-3-16 09:59 解除高亮
累計簽到︰1544 天
連續簽到︰6 天
發表於 2018-3-14 10:01:56 | 顯示全部樓層 |閱讀模式

墓的入侵者 Tomb.Invader, 2018.[MKV/3.24GB] [複製鏈接]

影視分享
分類: 電影
題材: 動作 
地區: 美國 
語言: 英语 
格式: MKV 
年份: 2018
資源: BT资源
1.jpg
$ N; d" J: w9 Y% h) ]0 d- S
7 c% Y* b9 F' l" _3 k◎译  名 墓的入侵者
- Y) x% y+ M& u◎片  名 Tomb Invader" v& p/ H# f$ j- d6 F* J5 i
◎年  代 2018
, o" K- k! q5 w# b◎产  地 美国
. x0 c- x" T4 F/ v% V) Y  S) u◎类  别 动作. d9 M4 H0 \- P6 a  _  I
◎语  言 英语7 }9 ]0 w5 v* _7 y
◎IMDb评分  N/A9 O+ E; o, a3 S6 I( G3 s4 r
◎IMDb链接  http://www.imdb.com/title/tt7781732/
) Q* K) @3 V( v7 N, g: H$ m◎片  长 1h 23mn
* l" k. O/ k8 H: @: x/ z& P7 J◎导  演 James Thomas' c* F# B5 s$ y  W
◎主  演 Gina Vitori ...Alabama Channing  F+ k2 M4 x7 l3 d1 f
      Samantha Bowling ...Helena% G" H2 v: _2 T1 I% A
      Andrew J Katers ...Nathan
: D1 ]& b& u4 H0 i      Evan Sloan ...Tim Parker( w4 k) l- }" ~
      Shawn McConnell ...Bennie Blum2 e" Z% M+ q5 h' r* a& s1 `
      Tammy Klein ...Julie Channing
- C; ^0 O4 a# i' i# k' l8 m      Kate Watson ...Michelle
) d0 j# R+ g' w3 m* P
' `% m: O6 t% ?  a! n6 N◎简  介
- t  Y5 u- e; M3 P& B) v2 B$ Y9 `* z; r
  A group of College kids find clues leading them to an ancient tomb somewhere deep in the jungle. Relics from the past bring these young adventurers closer to their goal and even closer to finding the truth of a missing family member.
+ W* ]3 B7 b0 V9 A0 m
9 y4 w  x5 p: G" x
CODE:7 ]  G( w) G( b; i  |2 V

" `3 ]( W4 C) r2 v1 ]5 S

3 @5 M+ e' F0 l6 b) u' x% q5 a! p; K% }+ z; K/ N+ V" D% U
Video) e+ N& a* x3 e5 E7 K0 n
ID                                       : 1
% L) ^( q4 x& |  D. A7 EFormat                                   : AVC
! z9 w4 A# \7 H0 W$ _. |Format/Info                              : Advanced Video Codec
9 S( x6 F- n8 _: W* G. F% NFormat profile                           : High@L43 c4 W; a0 S, ?4 g; O
Format settings                          : CABAC / 4 Ref Frames, X3 _; D3 J  ~7 c
Format settings, CABAC                   : Yes
  |1 l. a% _# |- h2 a6 n9 uFormat settings, ReFrames                : 4 frames1 N- S7 \/ }' I% q$ w: z  O
Codec ID                                 : V_MPEG4/ISO/AVC2 w$ a8 @' q, B+ c9 \/ e
Duration                                 : 1 h 23 min! w, }7 r0 B3 }+ Z1 e3 ?
Bit rate                                 : 5 195 kb/s
' d, _) O. P4 G. Z5 w" QWidth                                    : 1 916 pixels; }. F6 M6 @5 _
Height                                   : 1 076 pixels* n0 s$ T) p" r; w; }
Display aspect ratio                     : 16:9
  w. ^; R, a7 C, O3 r+ LFrame rate mode                          : Constant4 M' n# W- P; Y, J
Frame rate                               : 23.976 (23976/1000) FPS% _4 b. q0 q3 A# s/ |1 ~
Color space                              : YUV! O2 D* e" s: v, K) i+ d
Chroma subsampling                       : 4:2:0
. g9 R- f0 P& jBit depth                                : 8 bits
; j. m0 Q/ U$ n0 X7 {+ h" U( j- tScan type                                : Progressive
9 `# i! s0 W" u/ U5 Z2 k4 BBits/(Pixel*Frame)                       : 0.105
& i" t  q+ V6 a  n- R0 l* gStream size                              : 3.01 GiB (93%)
$ z# a/ h8 _2 w! u8 ]Title                                    : Tomb.Invader.2018.1080p.WEB-DL.DD5.1.H.264-FGT
8 F2 E! U1 c* CLanguage                                 : English
1 ]1 _  y' i! N( x) sDefault                                  : Yes
1 n2 t- M* M" s1 w. ~Forced                                   : No
1 d% p% f1 x, e: l" kColor range                              : Limited# m/ Y* s$ k5 A5 n# J/ K% ]
Color primaries                          : BT.709# V, X7 @9 ?% I- \0 r+ G" u; C
Transfer characteristics                 : BT.709
: l3 M3 u2 E- D7 U# f5 g5 SMatrix coefficients                      : BT.709
5 y0 c: _- }6 v9 x  H. Z& }
/ k+ P8 _( n/ y9 j0 kAudio+ t( Y) Z% v7 Q7 m8 D% Z
ID                                       : 2
3 w: S* L8 U$ o/ gFormat                                   : AC-3
2 s1 F, a8 ^, oFormat/Info                              : Audio Coding 3
: N+ _, F9 L: F; o' BCodec ID                                 : A_AC3
' p- K7 h6 X9 b  oDuration                                 : 1 h 23 min; @" t6 v. E6 f
Bit rate mode                            : Constant
/ ?  |) y4 ], WBit rate                                 : 384 kb/s) I* @7 s4 b% B' X2 W# h
Channel(s)                               : 6 channels
4 v5 @3 T9 i  \3 \& UChannel positions                        : Front: L C R, Side: L R, LFE2 |- @0 G: m' c' j- m5 [( M
Sampling rate                            : 48.0 kHz
# V8 V8 d# Z$ S: q1 t9 hFrame rate                               : 31.250 FPS (1536 SPF)
% T4 h: J5 g( k% }! ~8 F2 U; |Bit depth                                : 16 bits
4 J5 E* `* g" F; J4 TCompression mode                         : Lossy
6 u: b% e2 p& J' R: z) d( sStream size                              : 228 MiB (7%)
& q% _1 N- C4 Q/ x: J1 `Title                                    : Tomb.Invader.2018.1080p.WEB-DL.DD5.1.H.264-FGT1 n( w4 r/ o3 {
Language                                 : English
8 N1 q1 E! w% _9 k5 `; k& Q  p6 D4 J$ l  }Service kind                             : Complete Main
' ~& s6 n1 J* y! _& GDefault                                  : Yes
4 Q) D+ l2 E9 `) Y7 VForced                                   : No
# G6 b  |/ S! S5 n9 E: I% h8 C9 v
Text
2 A' k5 C: m9 Z$ g; XID                                       : 35 c+ F# a8 k+ S7 \4 E% Q" d
Format                                   : UTF-8
7 W: p6 o: K$ {5 fCodec ID                                 : S_TEXT/UTF83 j- ^, o  h& p4 o  n
Codec ID/Info                            : UTF-8 Plain Text/ _( m. T  {" A7 C& Q
Duration                                 : 1 h 19 min! U7 B5 U1 A" Q- a
Bit rate                                 : 63 b/s
+ ~- ^0 u$ N' M, ^5 g5 wCount of elements                        : 1256
6 i$ d" h8 v- {Stream size                              : 37.1 KiB (0%)
$ K. P8 E+ ?# ILanguage                                 : English
9 V; m' @4 {5 j: ^/ }- `- A' Q+ b, B1 wDefault                                  : Yes0 _/ x8 M! |' [& M+ V. g; l
Forced                                   : No
/ N9 A- R, L2 D3 u, w
% o# r4 g; Y9 l5 y* S  }% @6 A/ NMenu% C' E# A# c6 V( u
00:00:00.000                             : en:1
/ e5 `8 U2 C, f8 P# q- t" B  Y00:11:12.000                             : en:22 d3 X; @) N3 H
00:21:03.000                             : en:3  ]6 E" K3 i5 q4 J
00:31:26.000                             : en:41 r/ ^& `8 @* B
00:40:30.000                             : en:53 r% [4 B1 w* T% A
00:50:03.000                             : en:6: C2 V9 t1 f& y
01:00:53.000                             : en:72 X( u) V7 W, M$ z, C: p# }# ?0 D
01:12:07.000                             : en:8
- |  d2 c0 M+ t4 V01:19:44.000                             : en:9

; m/ a5 t; D7 m3 o. d0 X5 }" o- ~; n/ L- L9 _
  F4 ?4 Q8 }& u$ b+ _9 p

- f+ |  P: r/ X. Y- l( V$ J3 t0 m
& U' [6 U) F0 l8 u# q

; y3 |4 X- x2 p& e

墓的入侵者 MKV.torrent

65.3 KB, 下載次數: 321

尚未簽到

發表於 2018-3-14 10:02:56 | 顯示全部樓層
絕對的好貼!謝謝啊!逐字逐圖地看完這個帖子以後,我的心久久不能平靜,感恩啊!
累計簽到︰133 天
連續簽到︰1 天
發表於 2018-3-14 14:13:33 | 顯示全部樓層
這個我收藏了!謝謝分享!WK的資源越來越豐富,這少不了大大的辛勞!
累計簽到︰1232 天
連續簽到︰5 天
發表於 2018-3-14 15:05:20 | 顯示全部樓層
感謝大大的辛勞分享!我會繼續在WK關注大大的文章!
累計簽到︰953 天
連續簽到︰6 天
發表於 2018-3-14 23:52:10 | 顯示全部樓層
感謝大大的辛勞分享!我會繼續在WK關注大大的文章!
累計簽到︰204 天
連續簽到︰1 天
發表於 2018-3-15 00:12:08 | 顯示全部樓層
偶像^^小生一直都在關注你的原創!小生對你之仰慕如滔滔江水連綿不絕!

尚未簽到

發表於 2018-3-16 02:55:11 | 顯示全部樓層
這個我收藏了!謝謝分享!WK的資源越來越豐富,這少不了大大的辛勞!

尚未簽到

發表於 2018-3-16 11:00:49 | 顯示全部樓層
這個我收藏了!謝謝分享!WK的資源越來越豐富,這少不了大大的辛勞!

尚未簽到

發表於 2018-3-17 09:11:47 來自手機 | 顯示全部樓層
精妙絕倫的精品,感謝啊!期待你更多更好的創作哦!

尚未簽到

發表於 2018-3-19 04:02:07 | 顯示全部樓層
精妙絕倫的精品,感謝啊!期待你更多更好的創作哦!

回復樓主 親!! 現在是淩晨!妳失眠啦?餓啦?通宵加班?還是想WK啦?

 分享同時學會感恩,一句感謝的話語,就是最大的支持!  歡迎交流討論
您需要登錄後才可以回帖 登錄 | 立即注册

本版積分規則

c重要聲明:本論壇是以即時上載言論的方式運作,WK論壇對所有言論的真實性、立場及版權等,不負任何法律責任。而一切言論只代表發佈者個人意見,並非本網站之立場,讀者及用戶務必自行判斷內容之真實性。 由於本論壇受到「即時上載言論」運作方式所規限,故不能完全監察所有言論,若讀者及用戶發現有內容出現「真實性、立場及版權」等問題,請聯絡我們:info@waikeung.net論壇有權刪除任何言論(刪除前或不會作事先警告及通知)| SiteMap[網站地圖]

發表新帖 返回頂部