WK綜合論壇, WK综合论坛

查看:6084 回復:13 發表於 2018-3-12 01:56:36
本主題由 212love 於 2018-3-8 23:52 解除高亮
累計簽到︰1386 天
連續簽到︰15 天
發表於 2018-3-7 16:13:32 | 顯示全部樓層 |閱讀模式

僵屍攻擊 Attack.of.the.Southern.Fried.Zombies., 2017.[MKV / 9.4G] [複製鏈接]

影視分享
分類: 電影
題材: 恐怖 
地區: 美國 
語言: 英语 
格式: MKV 
年份: 2017
資源: BT资源
1.jpg / g+ z, r/ \( s. K& V" H
% G* @2 C" f3 z1 J4 n8 S
◎译  名 AttackoftheSouthernFriedZombies0 x* Z9 r* s  f5 `  x

7 S/ n( l& a* R◎片  名 Kudzu Zombies1 x& m" @; P% {3 ]( G
. g) H9 Q, X+ J+ |4 n" O) N. |
◎年  代 2017
7 k) y2 i& ~; h& d9 L6 P
0 z3 h% O( D% ]7 l" C◎产  地 美国
- y% N' ^  M% F
' c6 h; J/ R" i# j◎类  别 恐怖3 z$ r9 @  c* G' A$ `1 r
! a# e8 N! c% b- p: {
◎语  言 英语: G, D2 ]9 B* |, V" W% J2 w
* @) c, i  Y) d) B  V9 e
◎IMDb评分  7.0/10 from 17 users4 C* h6 `6 ^# U2 r" Y3 N

/ p0 P$ A& e  H9 |" r◎IMDb链接  http://www.imdb.com/title/tt5594444/5 I2 Q3 x$ `9 d. W- {

% K2 k3 i0 g1 |0 q/ a◎导  演 Mark Newton
4 S6 \  ?4 }9 w0 k4 ~& Q6 i1 C( B; n: T" [7 b; X+ |
◎主  演 Megan Few3 T+ b+ ?% K( a' |" M: X& V) S

1 t; Q2 [  B8 T. U6 E      Jeremy Sande$ X2 I) w0 H+ \# r; @; C: H' L
% _  c0 y! Y7 _8 _+ M
      Michael Joiner
) W9 g3 Z3 s# k
/ X- @3 p" Z) {& t( A1 V; ?5 m+ `7 D6 N) Z) Q7 {

& x2 N2 d" a! K9 z8 a  C# f1 q◎简  介" K6 F7 N( \3 [, O. q5 M
, g+ ]6 R2 p( m

) R! t9 y, l5 P
. n- W1 O- ?! `5 ^# M$ D  Lonnie, a crop duster pilot, must lead a mismatched group of survivors to escape the deadly zombie horde after an experimental chemical, intended to control the invasive kudzu vine, transforms the citizens of Charleston, MS into zombies." w! Q+ q4 k: L$ D4 }4 ?

, g+ N2 u3 d$ ]' Z" ^5 o6 A. ~/ D% U+ I; Z, l7 _7 n. Y7 I, c( p
" {, m! v8 z9 M( O" @
Video) c1 h- u* ?: P/ a1 {2 S& @
ID                                       : 1
' ]3 j- M! z3 k  JFormat                                   : AVC% D2 i# h8 j- ^1 I9 N
Format/Info                              : Advanced Video Codec1 |6 W* R- w8 W0 `3 h
Format profile                           : High@L4.1
2 ?" h8 W3 D2 x) xFormat settings                          : CABAC / 4 Ref Frames( q+ B; K1 G# b7 t
Format settings, CABAC                   : Yes
1 _( c8 b  Z; u4 j) z) Y1 JFormat settings, ReFrames                : 4 frames
* `7 b; G8 x% |# W9 H( y' tCodec ID                                 : V_MPEG4/ISO/AVC1 ]) ?9 _* M, o% u( y1 C. i! U
Duration                                 : 1 h 23 min
- c6 N: @: P" z, @  a" ~4 @) KBit rate                                 : 14.8 Mb/s1 n) V5 k; H1 O
Width                                    : 1 920 pixels! c. S* w3 A8 t! @: B7 _
Height                                   : 1 080 pixels. M( ^0 u5 c8 N  R7 l* ~
Display aspect ratio                     : 16:9& \5 Y& j. Y$ d! R# X- g& `
Frame rate mode                          : Constant1 i$ ]& A% i& N# X' z5 X6 M7 Y
Frame rate                               : 23.976 (24000/1001) FPS5 [" B/ E+ ]8 O' Y' _4 d% c2 r
Color space                              : YUV4 c! o" i' y3 |: o
Chroma subsampling                       : 4:2:05 Z$ ^0 x$ e* o$ S* O1 D; r
Bit depth                                : 8 bits
! R& P# B8 e# H  {Scan type                                : Progressive$ Z5 A* |3 P% _( N5 F
Bits/(Pixel*Frame)                       : 0.298' R$ E0 r, P! S, M2 e
Stream size                              : 8.61 GiB (91%)' l7 P- [9 ~, T% G# X
Writing library                          : x264 core 149 r2771+45 509cceb 7mod [8-bit@all X86_64]
) c3 c6 L) S+ W8 p" gEncoding settings                        : cabac=1 / ref=4 / deblock=1:-3:-3 / analyse=0x3:0x113 / me=umh / subme=10 / psy=1 / fade_compensate=0.00 / psy_rd=0.90:0.10 / mixed_ref=1 / me_range=48 / chroma_me=1 / trellis=2 / 8x8dct=1 / cqm=0 / deadzone=21,11 / fast_pskip=0 / chroma_qp_offset=-2 / threads=12 / lookahead_threads=2 / sliced_threads=0 / nr=0 / decimate=1 / interlaced=0 / bluray_compat=0 / constrained_intra=0 / fgo=0 / bframes=8 / b_pyramid=2 / b_adapt=2 / b_bias=0 / direct=3 / weightb=1 / open_gop=0 / weightp=2 / keyint=250 / keyint_min=23 / scenecut=40 / intra_refresh=0 / rc_lookahead=40 / rc=crf / mbtree=0 / crf=19.0000 / qcomp=0.70 / qpmin=0:0:0 / qpmax=69:69:69 / qpstep=4 / vbv_maxrate=35000 / vbv_bufsize=35000 / crf_max=0.0 / nal_hrd=none / filler=0 / ip_ratio=1.40 / pb_ratio=1.30 / aq=3:1.00 / aq-sensitivity=10.00 / aq-factor=1.00:1.00:1.00 / aq2=0 / aq3=2:[0.50:0.50]:[0.50:0.50]:[0.50:0.50]:[0.50:0.50] / aq3-sensitivity=10.00 / aq3-factor=[1.00:1.00]:[1.00:1.00]:[1.00:1.00] / aq3-boundary=192:64:24
$ a' H. J* Z* c4 uLanguage                                 : English! E4 ]4 b  }, a) I
Default                                  : Yes
/ H4 `, C* m, ]. p' Q' TForced                                   : No
/ q" i8 E  M  YColor range                              : Limited1 |3 ?( _% d7 y7 K5 m6 F* D
Matrix coefficients                      : BT.7098 G8 k" V! w$ C9 Q% O$ s* U

8 W: H% ]! [5 ~3 WAudio
' E, H" i% R$ E. ~* sID                                       : 29 G7 ]- `9 i$ {  O% O- h
Format                                   : DTS) }* ]! c; o) D# ~3 U
Format/Info                              : Digital Theater Systems! [; e; P. C* {% A3 L2 A' [
Codec ID                                 : A_DTS
* X9 `5 c' U2 G+ z. W) h6 xDuration                                 : 1 h 23 min
0 R$ W; e1 u# g2 u2 l3 m$ JBit rate mode                            : Constant
4 c& V% ], q2 K9 gBit rate                                 : 1 509 kb/s, s4 S0 F7 h/ ~3 r% J; J
Channel(s)                               : 6 channels
/ d% |! @& Y, b$ B$ V" TChannel positions                        : Front: L C R, Side: L R, LFE
+ U. a1 u# E% B: vSampling rate                            : 48.0 kHz2 C+ t9 s3 ]4 @3 g6 K6 E+ Q  p- r6 Z
Frame rate                               : 93.750 FPS (512 SPF)
! @. G, I" G: }4 }  |: OBit depth                                : 24 bits
3 [* ]! ^# M# G% N, `5 }Compression mode                         : Lossy, @0 h8 x4 S) S( i- Q% p
Stream size                              : 898 MiB (9%)' Y: F, ?) X, m- \* _% N
Language                                 : English8 V7 U% |) N4 G# A! h# \  v
Default                                  : Yes
/ h7 Q3 a1 u0 {* H2 ?Forced                                   : No

+ E( o$ c% [% w2 k# [1 T) Y
* Q. v* P& L7 `7 s+ }3 c, M8 d
: V- b/ A) t! d9 n

僵屍攻擊. MKV.torrent

95.48 KB, 下載次數: 712

尚未簽到

發表於 2018-3-7 16:14:35 | 顯示全部樓層
很讚的文章,謝謝咯!相信WK因為有你而更加精彩!
累計簽到︰1445 天
連續簽到︰1 天
發表於 2018-3-7 18:06:29 | 顯示全部樓層
這個我收藏了!謝謝分享!WK的資源越來越豐富,這少不了大大的辛勞!

尚未簽到

發表於 2018-3-8 03:24:01 來自手機 | 顯示全部樓層
感謝大大的辛勞分享!我會繼續在WK關注大大的文章!

尚未簽到

發表於 2018-3-8 13:51:41 | 顯示全部樓層
絕對的好貼!謝謝啊!逐字逐圖地看完這個帖子以後,我的心久久不能平靜,感恩啊!

尚未簽到

發表於 2018-3-10 00:12:14 | 顯示全部樓層
精妙絕倫的精品,感謝啊!期待你更多更好的創作哦!

尚未簽到

發表於 2018-3-10 15:50:52 | 顯示全部樓層
絕對的好貼!謝謝啊!逐字逐圖地看完這個帖子以後,我的心久久不能平靜,感恩啊!

尚未簽到

發表於 2018-3-10 18:18:52 | 顯示全部樓層
很讚的文章,謝謝咯!相信WK因為有你而更加精彩!
累計簽到︰844 天
連續簽到︰14 天
發表於 2018-3-10 23:26:44 | 顯示全部樓層
感謝大大的辛勞分享!我會繼續在WK關注大大的文章!

尚未簽到

發表於 2018-3-12 01:56:36 | 顯示全部樓層
偶像^^小生一直都在關注你的原創!小生對你之仰慕如滔滔江水連綿不絕!

回復樓主 親!! 下午好,中午養足了精神嗎?讓我們一起渡過下午茶時間,WK有您更精彩!

 分享同時學會感恩,一句感謝的話語,就是最大的支持!  歡迎交流討論
您需要登錄後才可以回帖 登錄 | 立即注册

本版積分規則

c重要聲明:本論壇是以即時上載言論的方式運作,WK論壇對所有言論的真實性、立場及版權等,不負任何法律責任。而一切言論只代表發佈者個人意見,並非本網站之立場,讀者及用戶務必自行判斷內容之真實性。 由於本論壇受到「即時上載言論」運作方式所規限,故不能完全監察所有言論,若讀者及用戶發現有內容出現「真實性、立場及版權」等問題,請聯絡我們:info@waikeung.net論壇有權刪除任何言論(刪除前或不會作事先警告及通知)| SiteMap[網站地圖]

發表新帖 返回頂部