WK綜合論壇, WK综合论坛

查看:6188 回復:13 發表於 2018-3-12 01:56:36
本主題由 212love 於 2018-3-8 23:52 解除高亮
累計簽到︰1465 天
連續簽到︰12 天
發表於 2018-3-7 16:13:32 | 顯示全部樓層 |閱讀模式

僵屍攻擊 Attack.of.the.Southern.Fried.Zombies., 2017.[MKV / 9.4G] [複製鏈接]

影視分享
分類: 電影
題材: 恐怖 
地區: 美國 
語言: 英语 
格式: MKV 
年份: 2017
資源: BT资源
1.jpg
* `5 m' ]# B* ^" X1 A/ s- M
  U7 B) M) G. u5 y( z% U/ |◎译  名 AttackoftheSouthernFriedZombies; T9 k3 X5 F' _, j; n2 X. H# A4 v4 S

& b+ D: m8 u; @3 O2 \5 t7 d1 j& H◎片  名 Kudzu Zombies
+ [3 p+ }, l2 l) B/ i4 ]% ?* c4 Q. b7 }' w( u0 D" N! ~( w7 h
◎年  代 2017
0 N3 L2 x! \& n7 \' L) }; Z3 T9 E
0 j' q; Z; M: C5 a- n0 {0 }  F◎产  地 美国) Q7 J( w/ G" c  Q

" a7 u; i# [- X0 E7 e: f◎类  别 恐怖
' _) ^  p9 m  `# ?( c! j' `+ p/ \: j( ^! f. `$ |
◎语  言 英语
; m0 Y/ _5 H+ x. \# Q1 x
$ S( s$ t5 `) H/ i# H) h◎IMDb评分  7.0/10 from 17 users+ @- O1 Y! B6 F, r. f; g8 N
' f, F& d0 B( h9 J) Z4 Y% X) ?$ E
◎IMDb链接  http://www.imdb.com/title/tt5594444/  w+ v0 _* X2 X7 [# O; D9 F* j

7 _7 M" o7 p6 }$ p& a3 Y◎导  演 Mark Newton4 [, u) N8 V4 n, X

' u0 r8 F$ {4 t; b  Q◎主  演 Megan Few
' ?# d$ b) m: k/ T6 Y0 l# u' e' w2 r5 X) Y% N7 E, u5 J, D
      Jeremy Sande
" Y$ M% O' R( B! d* p4 T% U( b+ U' H3 O2 h; Z3 b
      Michael Joiner
- F, B$ a& T4 z- e# p7 R; J! T* _3 u! i3 c

) l1 ~, v+ F- @
5 m. k5 [( K9 N% F◎简  介: [8 D# w" h% n) B  l
6 m2 |* Y# r, w0 ]( q5 @
0 @3 W5 _" @* I4 t; k8 i  R& t- d

5 C& P2 k5 d* V8 M  Lonnie, a crop duster pilot, must lead a mismatched group of survivors to escape the deadly zombie horde after an experimental chemical, intended to control the invasive kudzu vine, transforms the citizens of Charleston, MS into zombies./ R( d. R0 k; z8 }: t% \) S
5 a* O  I2 Q! ]% b8 W0 r4 C

9 {8 I! O# K2 V+ _$ I8 y( a$ U5 s; L: @  u
Video
; R5 h$ V/ G1 Y- C, ^( rID                                       : 1! s/ ^9 v0 l  ^2 @8 c
Format                                   : AVC( ^# i* [- b( F: a
Format/Info                              : Advanced Video Codec
7 w+ V2 I+ ?$ `! }  GFormat profile                           : High@L4.17 v, z, O7 O+ I3 a
Format settings                          : CABAC / 4 Ref Frames7 F( o4 B, q! _7 o$ V' Y
Format settings, CABAC                   : Yes  z( S! n& I: Z! T
Format settings, ReFrames                : 4 frames
* i: L' S, K* u: S) m8 a, r9 qCodec ID                                 : V_MPEG4/ISO/AVC
% l$ k" k% y  u! w! q! {Duration                                 : 1 h 23 min* D5 Z' [& L, N# |2 k, _
Bit rate                                 : 14.8 Mb/s
8 ^3 X) f$ g, R4 P: Y: X$ s, gWidth                                    : 1 920 pixels& E5 y9 {2 \0 Q+ E. Z* S
Height                                   : 1 080 pixels0 c: \% g; r5 }8 m: C+ Q# R  Y
Display aspect ratio                     : 16:9
1 b9 W: a" \% k# \Frame rate mode                          : Constant  J& u- c4 E; n. M
Frame rate                               : 23.976 (24000/1001) FPS
5 I* f: ?2 H) e% T) dColor space                              : YUV5 X/ V* V( X- ~# _+ Y* {
Chroma subsampling                       : 4:2:0
6 h/ u. w% c, W$ P( M) m& MBit depth                                : 8 bits$ G1 [4 h( T8 F3 X& M/ f
Scan type                                : Progressive4 w& |, V2 h) f( F) |9 z  L
Bits/(Pixel*Frame)                       : 0.298$ c( ^( w2 u3 J
Stream size                              : 8.61 GiB (91%)% m4 }+ L* @' Q$ m5 }* V
Writing library                          : x264 core 149 r2771+45 509cceb 7mod [8-bit@all X86_64]
. ^6 q$ \8 C  n9 B. mEncoding settings                        : cabac=1 / ref=4 / deblock=1:-3:-3 / analyse=0x3:0x113 / me=umh / subme=10 / psy=1 / fade_compensate=0.00 / psy_rd=0.90:0.10 / mixed_ref=1 / me_range=48 / chroma_me=1 / trellis=2 / 8x8dct=1 / cqm=0 / deadzone=21,11 / fast_pskip=0 / chroma_qp_offset=-2 / threads=12 / lookahead_threads=2 / sliced_threads=0 / nr=0 / decimate=1 / interlaced=0 / bluray_compat=0 / constrained_intra=0 / fgo=0 / bframes=8 / b_pyramid=2 / b_adapt=2 / b_bias=0 / direct=3 / weightb=1 / open_gop=0 / weightp=2 / keyint=250 / keyint_min=23 / scenecut=40 / intra_refresh=0 / rc_lookahead=40 / rc=crf / mbtree=0 / crf=19.0000 / qcomp=0.70 / qpmin=0:0:0 / qpmax=69:69:69 / qpstep=4 / vbv_maxrate=35000 / vbv_bufsize=35000 / crf_max=0.0 / nal_hrd=none / filler=0 / ip_ratio=1.40 / pb_ratio=1.30 / aq=3:1.00 / aq-sensitivity=10.00 / aq-factor=1.00:1.00:1.00 / aq2=0 / aq3=2:[0.50:0.50]:[0.50:0.50]:[0.50:0.50]:[0.50:0.50] / aq3-sensitivity=10.00 / aq3-factor=[1.00:1.00]:[1.00:1.00]:[1.00:1.00] / aq3-boundary=192:64:24/ B9 p4 N# B5 a$ b( E
Language                                 : English
' L. G7 W! [  H5 J3 o$ _7 Y$ [! x/ ]Default                                  : Yes
0 q4 t$ g" @" j1 z) u! IForced                                   : No* O/ p. o: b, y' o! c4 g
Color range                              : Limited. Y8 E1 V: p+ y- B; q
Matrix coefficients                      : BT.709& @% i1 N4 f; i& O
- H! L! l% d4 @0 H9 F
Audio# k- s& k( ?' b8 m: O" c0 f- j
ID                                       : 2- M9 q  m$ T0 H; [1 s
Format                                   : DTS
; `2 B# c) v8 h$ eFormat/Info                              : Digital Theater Systems
0 _1 F( [. p. S5 ^4 fCodec ID                                 : A_DTS; G9 h( k4 h' S5 B
Duration                                 : 1 h 23 min
& A7 z& {9 J0 C* Y# e6 kBit rate mode                            : Constant
; d) F* J5 O( BBit rate                                 : 1 509 kb/s
. L  M0 q" i' z: e5 ~9 d1 oChannel(s)                               : 6 channels
4 k5 X5 g/ e  h/ sChannel positions                        : Front: L C R, Side: L R, LFE" a! y% P! X* o/ I7 t2 Z
Sampling rate                            : 48.0 kHz
0 |" t* |  t3 |& h" ~8 PFrame rate                               : 93.750 FPS (512 SPF)) }7 c  w$ d: ?8 n$ [6 `, A
Bit depth                                : 24 bits
5 D, y' z6 A4 E) XCompression mode                         : Lossy% K' g: e$ e/ a" _5 c
Stream size                              : 898 MiB (9%)- P- e: U* b% V7 Y) d# u
Language                                 : English
/ f  u) L8 h. M/ h3 pDefault                                  : Yes, A8 z: j% H% Z
Forced                                   : No
* ]% Q; k' K6 j

3 g9 w- P/ Y+ s0 |9 g- m8 F! V2 W4 f1 o

僵屍攻擊. MKV.torrent

95.48 KB, 下載次數: 712

尚未簽到

發表於 2018-3-7 16:14:35 | 顯示全部樓層
很讚的文章,謝謝咯!相信WK因為有你而更加精彩!
累計簽到︰1529 天
連續簽到︰39 天
發表於 2018-3-7 18:06:29 | 顯示全部樓層
這個我收藏了!謝謝分享!WK的資源越來越豐富,這少不了大大的辛勞!

尚未簽到

發表於 2018-3-8 03:24:01 來自手機 | 顯示全部樓層
感謝大大的辛勞分享!我會繼續在WK關注大大的文章!

尚未簽到

發表於 2018-3-8 13:51:41 | 顯示全部樓層
絕對的好貼!謝謝啊!逐字逐圖地看完這個帖子以後,我的心久久不能平靜,感恩啊!

尚未簽到

發表於 2018-3-10 00:12:14 | 顯示全部樓層
精妙絕倫的精品,感謝啊!期待你更多更好的創作哦!

尚未簽到

發表於 2018-3-10 15:50:52 | 顯示全部樓層
絕對的好貼!謝謝啊!逐字逐圖地看完這個帖子以後,我的心久久不能平靜,感恩啊!

尚未簽到

發表於 2018-3-10 18:18:52 | 顯示全部樓層
很讚的文章,謝謝咯!相信WK因為有你而更加精彩!
累計簽到︰911 天
連續簽到︰3 天
發表於 2018-3-10 23:26:44 | 顯示全部樓層
感謝大大的辛勞分享!我會繼續在WK關注大大的文章!

尚未簽到

發表於 2018-3-12 01:56:36 | 顯示全部樓層
偶像^^小生一直都在關注你的原創!小生對你之仰慕如滔滔江水連綿不絕!

回復樓主 親!! 下午好,中午養足了精神嗎?讓我們一起渡過下午茶時間,WK有您更精彩!

 分享同時學會感恩,一句感謝的話語,就是最大的支持!  歡迎交流討論
您需要登錄後才可以回帖 登錄 | 立即注册

本版積分規則

c重要聲明:本論壇是以即時上載言論的方式運作,WK論壇對所有言論的真實性、立場及版權等,不負任何法律責任。而一切言論只代表發佈者個人意見,並非本網站之立場,讀者及用戶務必自行判斷內容之真實性。 由於本論壇受到「即時上載言論」運作方式所規限,故不能完全監察所有言論,若讀者及用戶發現有內容出現「真實性、立場及版權」等問題,請聯絡我們:info@waikeung.net論壇有權刪除任何言論(刪除前或不會作事先警告及通知)| SiteMap[網站地圖]

發表新帖 返回頂部