WK綜合論壇, WK综合论坛

查看:6238 回復:13 發表於 2018-3-12 01:56:36
本主題由 212love 於 2018-3-8 23:52 解除高亮
累計簽到︰1547 天
連續簽到︰9 天
發表於 2018-3-7 16:13:32 | 顯示全部樓層 |閱讀模式

僵屍攻擊 Attack.of.the.Southern.Fried.Zombies., 2017.[MKV / 9.4G] [複製鏈接]

影視分享
分類: 電影
題材: 恐怖 
地區: 美國 
語言: 英语 
格式: MKV 
年份: 2017
資源: BT资源
1.jpg
0 b4 p1 e. A" W0 _+ e$ r7 E# O% x& c7 p) {; V- ]
◎译  名 AttackoftheSouthernFriedZombies! b/ P4 f4 w; J$ m" g

4 }! v+ k6 \6 w9 E  L  r◎片  名 Kudzu Zombies
6 z0 B" x! ?( z
" I( f: ^( x" D, u) s◎年  代 2017
: Q, |( Q2 z+ Y3 x
0 [/ Q+ v2 j" B" u◎产  地 美国
' V1 x+ K5 m+ L; q
/ `8 ]* Q( F; @6 {: @( I◎类  别 恐怖  D" R( a) b$ |# Z0 u
) U1 k' n0 F0 F" U
◎语  言 英语
! P' L' [% U+ p7 T6 p5 M8 @: l5 H/ @
◎IMDb评分  7.0/10 from 17 users/ J8 p8 p6 }+ ?- y3 g) }" A
3 S4 |$ P, m) S
◎IMDb链接  http://www.imdb.com/title/tt5594444/& c2 z' `9 H3 U! x* w! I

8 G6 I& |' d$ ?◎导  演 Mark Newton8 ?1 N9 Z2 D# T0 B8 `

3 `4 c* ~. ?/ {◎主  演 Megan Few
3 q+ A! G  C/ f$ b/ r" J. T4 t! R9 q+ `! h" E* U5 ?
      Jeremy Sande
: H" J5 d2 j0 \  X0 x# a4 h+ s1 U3 I" X9 h/ ~
      Michael Joiner  K9 k- h) C& M" A

6 ]3 D, z- w+ `1 Z
; Z& q. T& Q+ `8 A9 h6 W' j2 V  B# c+ p$ m
◎简  介8 a6 [6 m" s: l0 w  L& p: J

1 \- j: z- {9 F6 D2 V/ O0 `- ?" _! w' i5 K7 Q& z& J

6 b* |" N- w, |; g  Lonnie, a crop duster pilot, must lead a mismatched group of survivors to escape the deadly zombie horde after an experimental chemical, intended to control the invasive kudzu vine, transforms the citizens of Charleston, MS into zombies.
+ o# P0 y1 @3 [! {3 e/ ?
" R) _4 \, g9 _+ n3 ]* m6 \
9 d/ e. P6 C- O" i0 @- X0 G! m' y/ W0 @5 c8 J* Q
Video
) }6 i" z; H( s2 ]6 S( AID                                       : 1! x+ f* @5 d  A$ f! y4 m
Format                                   : AVC+ I; V( l) }/ \) ]7 P- l, n, ?
Format/Info                              : Advanced Video Codec% v) S( j: G8 o  H$ |  |0 D
Format profile                           : High@L4.19 y3 x( {2 }% _. |
Format settings                          : CABAC / 4 Ref Frames$ p+ G3 p# @" O0 b
Format settings, CABAC                   : Yes
; X( O1 |$ S" M: x- kFormat settings, ReFrames                : 4 frames- _9 `7 M( B% C0 G5 O$ ]: I
Codec ID                                 : V_MPEG4/ISO/AVC
7 n0 Z2 r( b: E& G+ c3 _Duration                                 : 1 h 23 min; n6 J$ k6 ~# x+ k
Bit rate                                 : 14.8 Mb/s* q! c% c7 [8 r2 i6 s- I- e' \
Width                                    : 1 920 pixels+ A6 n+ m- Z! e% b7 `
Height                                   : 1 080 pixels
7 U! i5 c+ Q: k/ n4 O' WDisplay aspect ratio                     : 16:9
1 \' u- f8 ^9 X: \( M  h" S: `Frame rate mode                          : Constant
$ t# j- g6 i; ?) J  gFrame rate                               : 23.976 (24000/1001) FPS
  Z+ i+ B2 t6 ]! J* a9 ]6 eColor space                              : YUV4 V6 ?1 H  W% X2 @- O5 L
Chroma subsampling                       : 4:2:0, o6 c! R! d7 p9 @: V; t5 w
Bit depth                                : 8 bits
' o$ A/ Y& c% O+ `" `9 ]( b- W( jScan type                                : Progressive
; Q1 `& v' Z0 j6 U( P/ v9 DBits/(Pixel*Frame)                       : 0.298$ r% |; F5 [" S9 e
Stream size                              : 8.61 GiB (91%)
, O3 _2 P" [$ ?) M2 q$ QWriting library                          : x264 core 149 r2771+45 509cceb 7mod [8-bit@all X86_64]. @4 k  K' C6 Z
Encoding settings                        : cabac=1 / ref=4 / deblock=1:-3:-3 / analyse=0x3:0x113 / me=umh / subme=10 / psy=1 / fade_compensate=0.00 / psy_rd=0.90:0.10 / mixed_ref=1 / me_range=48 / chroma_me=1 / trellis=2 / 8x8dct=1 / cqm=0 / deadzone=21,11 / fast_pskip=0 / chroma_qp_offset=-2 / threads=12 / lookahead_threads=2 / sliced_threads=0 / nr=0 / decimate=1 / interlaced=0 / bluray_compat=0 / constrained_intra=0 / fgo=0 / bframes=8 / b_pyramid=2 / b_adapt=2 / b_bias=0 / direct=3 / weightb=1 / open_gop=0 / weightp=2 / keyint=250 / keyint_min=23 / scenecut=40 / intra_refresh=0 / rc_lookahead=40 / rc=crf / mbtree=0 / crf=19.0000 / qcomp=0.70 / qpmin=0:0:0 / qpmax=69:69:69 / qpstep=4 / vbv_maxrate=35000 / vbv_bufsize=35000 / crf_max=0.0 / nal_hrd=none / filler=0 / ip_ratio=1.40 / pb_ratio=1.30 / aq=3:1.00 / aq-sensitivity=10.00 / aq-factor=1.00:1.00:1.00 / aq2=0 / aq3=2:[0.50:0.50]:[0.50:0.50]:[0.50:0.50]:[0.50:0.50] / aq3-sensitivity=10.00 / aq3-factor=[1.00:1.00]:[1.00:1.00]:[1.00:1.00] / aq3-boundary=192:64:24
& R( U& S: c. g. S1 B! h; r6 I2 B+ tLanguage                                 : English
4 n/ W# q/ Z: D6 \2 zDefault                                  : Yes
. N  j. z+ X" j* }: h& f& nForced                                   : No3 p3 l9 m9 a6 Q& O9 e
Color range                              : Limited
  J# z% |. U7 [4 ?Matrix coefficients                      : BT.709. B0 r; _- L) B4 a

5 |2 \8 a6 y& s  A- ?: sAudio
' C. c& s7 ~% I, X" QID                                       : 2
2 Q( n- Q" m3 r) c$ [" @$ s6 cFormat                                   : DTS
0 x* t2 J, {. g2 y4 C/ Y& UFormat/Info                              : Digital Theater Systems/ r& I2 y$ u8 f9 y
Codec ID                                 : A_DTS
/ s) d! z" Q( \  Q; t+ j* lDuration                                 : 1 h 23 min3 e! ?/ |0 k( q+ j' ^0 k
Bit rate mode                            : Constant0 T$ |4 P, a2 j$ i; Q7 D
Bit rate                                 : 1 509 kb/s( a) B5 y: x0 E  m! f8 ?; U
Channel(s)                               : 6 channels" I/ [/ m6 T% X" ]
Channel positions                        : Front: L C R, Side: L R, LFE5 G' Q' C% q7 n5 N
Sampling rate                            : 48.0 kHz. \3 x1 m0 c- ^7 c* {$ G
Frame rate                               : 93.750 FPS (512 SPF)7 W8 D2 h6 A& }
Bit depth                                : 24 bits
( K! Z$ i$ j+ c  n& h. K$ GCompression mode                         : Lossy- g$ `; f6 l, K+ Y, L
Stream size                              : 898 MiB (9%)
3 M( F  `, l3 lLanguage                                 : English
+ }) n# B: _  ]8 ]8 W1 c) ADefault                                  : Yes! B' X1 Z' I; P. ?1 F, r
Forced                                   : No

4 \) g& x1 f/ F, r2 Q+ @
# S  z8 x3 o" `+ I: S, V$ Q
0 K. Q& q* R0 s; i+ J: i

僵屍攻擊. MKV.torrent

95.48 KB, 下載次數: 712

尚未簽到

發表於 2018-3-7 16:14:35 | 顯示全部樓層
很讚的文章,謝謝咯!相信WK因為有你而更加精彩!
累計簽到︰1612 天
連續簽到︰15 天
發表於 2018-3-7 18:06:29 | 顯示全部樓層
這個我收藏了!謝謝分享!WK的資源越來越豐富,這少不了大大的辛勞!

尚未簽到

發表於 2018-3-8 03:24:01 來自手機 | 顯示全部樓層
感謝大大的辛勞分享!我會繼續在WK關注大大的文章!

尚未簽到

發表於 2018-3-8 13:51:41 | 顯示全部樓層
絕對的好貼!謝謝啊!逐字逐圖地看完這個帖子以後,我的心久久不能平靜,感恩啊!

尚未簽到

發表於 2018-3-10 00:12:14 | 顯示全部樓層
精妙絕倫的精品,感謝啊!期待你更多更好的創作哦!

尚未簽到

發表於 2018-3-10 15:50:52 | 顯示全部樓層
絕對的好貼!謝謝啊!逐字逐圖地看完這個帖子以後,我的心久久不能平靜,感恩啊!

尚未簽到

發表於 2018-3-10 18:18:52 | 顯示全部樓層
很讚的文章,謝謝咯!相信WK因為有你而更加精彩!
累計簽到︰955 天
連續簽到︰1 天
發表於 2018-3-10 23:26:44 | 顯示全部樓層
感謝大大的辛勞分享!我會繼續在WK關注大大的文章!

尚未簽到

發表於 2018-3-12 01:56:36 | 顯示全部樓層
偶像^^小生一直都在關注你的原創!小生對你之仰慕如滔滔江水連綿不絕!

回復樓主 親!! 下午好,中午養足了精神嗎?讓我們一起渡過下午茶時間,WK有您更精彩!

 分享同時學會感恩,一句感謝的話語,就是最大的支持!  歡迎交流討論
您需要登錄後才可以回帖 登錄 | 立即注册

本版積分規則

c重要聲明:本論壇是以即時上載言論的方式運作,WK論壇對所有言論的真實性、立場及版權等,不負任何法律責任。而一切言論只代表發佈者個人意見,並非本網站之立場,讀者及用戶務必自行判斷內容之真實性。 由於本論壇受到「即時上載言論」運作方式所規限,故不能完全監察所有言論,若讀者及用戶發現有內容出現「真實性、立場及版權」等問題,請聯絡我們:info@waikeung.net論壇有權刪除任何言論(刪除前或不會作事先警告及通知)| SiteMap[網站地圖]

發表新帖 返回頂部