WK綜合論壇, WK综合论坛

查看:391064 回復:33 發表於 2016-10-15 09:03:03
累計簽到:2117 天
連續簽到:1 天
發表於 2016-10-12 18:58:49 | 顯示全部樓層 |閱讀模式
VIP精品區,資源無限好賺金任務區,輕松賺金幣
加入VIP,享受高級特權宣傳賺金又升級,超級棒

神奇隊長 Captain.Fantastic, 2016.[MKV / 3.48GB]   [複製鏈接]

影視分享
分類: 電影
題材: 愛情 劇情 喜劇 
地區: 美國 
語言: 英语 
格式: MKV 
年份: 2016
資源: BT资源
( i( T1 F+ f1 g! X8 p5 U7 V7 O0 ]6 A9 ^
: s8 Z. L( }# ^) m( a
◎译  名 神奇队长: I4 Y8 G  s6 M1 q* _
◎片  名 Captain Fantastic( ]6 }6 m# A2 T) V4 W- s3 Q
◎年  代 2016/ N9 l0 j7 Q+ y8 Q5 I7 J
◎国  家 美国- H/ |" z2 t/ h* l1 i7 d: P
◎类  别 剧情/喜剧/爱情" p% s' k( w+ Z8 C+ R1 B
◎语  言 英语
; d; c% J) h+ h) w◎上映日期 2016-01-23(圣丹斯电影节)/2016-07-08(美国)
' M" R2 T* A% H6 E9 ?◎IMDb评分  8.1/10 from 9,480 users
$ M; M& W: v0 E8 [6 l◎IMDb链接  http://www.imdb.com/title/tt3553976/
1 H  ^* J; Z; z4 V◎豆瓣评分 7.9/10 from 243 users7 c, u# Y% [" Y9 O% W4 ]/ h
◎豆瓣链接 https://movie.douban.com/subject/25834735/4 n) {4 [' ?" b, }% }4 w6 ~
◎片  长 118分钟
% X8 H3 ?7 X7 c$ Z1 x* U3 n0 J# a, b◎导  演 马特·罗斯 Matt Ross
! ?% ^* |: |! ^7 U. T2 K◎主  演 维果·莫腾森 / 乔治·麦凯 / 安娜丽丝·巴索 / 弗兰克·兰格拉 / 史蒂夫·茨恩 / 凯瑟琳·哈恩 / 米西·派勒 / 艾琳·莫里亚蒂 / 萨曼莎·伊斯莱尔
' l( n$ _' `( o- u/ [, F9 I$ s◎简  介5 \$ X- A* c# s/ s
  在太平洋西北部的森林深处,与世隔绝,一位慈爱的父亲全心全意地试图将自己六个年幼的孩子培养成出色的成年人。但当灾难降临,他们被迫离开了自己创建的天堂,开始走向外面的世界。这不仅挑战了他对“家长“这个角色的理解,也让孩子们开始怀疑父亲所教给他们的一切。) W3 p6 `1 ?) C& b, ?; ]1 }1 A) H( z( ~
Video
4 j5 n8 T* c" a7 j8 ~ID                                       : 1* Q' ~% q  Y1 h. O" p
Format                                   : AVC6 V) q8 q: D. [" q  [
Format/Info                              : Advanced VideoCodec
* R3 p# K- p0 u' _% b3 ~Format profile                           : [email protected]+ }: _/ d3 \# U! ~( r( H
Format settings, CABAC                   : Yes# R7 ]7 E+ [1 C. m& ~
Format settings, ReFrames                : 5 frames2 [" k2 F# |: D, r) \! L
Codec ID                                 :V_MPEG4/ISO/AVC) N9 q: X, y& x
Duration                                 : 1h 59mn
2 l! Y, v* i1 I: N# z5 S" R, LBit rate                                 : 4 424 Kbps$ ?1 c2 |9 |$ O! k& D9 _
Width                                    : 1 916 pixels' R6 S% R* A+ k2 n. ]5 O0 C
Height                                   : 792 pixels
7 Y# |- O% K, [1 HDisplay aspect ratio                     : 2.40:1* w, {0 w5 {! C; e. e
Frame rate mode                          : Constant
, G0 q- Y' H; g7 v: n+ qFrame rate                               : 23.976 fps3 y! w% B. X" l7 C
Color space                              : YUV# D1 Q4 \$ N$ l) v& ?, Q# m
Chroma subsampling                       : 4:2:0. U: d/ P) W  f% ?
Bit depth                                : 8 bits
" z: @  t5 T* {3 S8 \% ^, GScan type                                : Progressive
* ?& S* q2 z- h! Y7 `( M5 c' HBits/(Pixel*Frame)                       : 0.122
# f& q, b% c' S- A/ j  CStream size                              : 3.69 GiB (90%)
4 g2 l: ~, O5 ~  DTitle                                    :Captain.Fantastic.2016.1080p.WEB-DL.DD5.1.H264-FGT
5 X7 M) l9 H3 P' A& aLanguage                                 : English
! }; ?8 x+ Y+ ]# n7 G( yDefault                                  : Yes: R: {6 D, r5 O* N7 {4 O8 e2 h2 X! G
Forced                                   : No
9 |, r( S7 n' t3 Y. F. y# w* sColor range                              : Limited
7 F( T$ X+ w2 V; AColor primaries                          : BT.709
4 z. g" x3 d% M# L* \/ R# V2 FTransfer characteristics                 : BT.709
: M1 h2 w. ]$ c# I# n8 W7 tMatrix coefficients                      : BT.709
( X! W% Q) h# g! N% a" `Audio( Y* X2 T; H0 G" B7 y0 O
ID                                       : 2
. Z2 H9 e) t& @$ }  u9 tFormat                                   : AC-3& Y$ T$ f3 F5 J$ v
Format/Info                              : Audio Coding 3
& I% d( p. v1 ^  n2 F2 nMode extension                           : CM (complete main)6 k1 B- k% _) p8 j8 Y) T0 w" ]/ I
Format settings, Endianness              : Big
8 J% F2 M. T* vCodec ID                                 : A_AC3
# V7 U0 n2 e2 n' XDuration                                 : 1h 59mn9 t, {0 I2 E( y: P/ j7 J9 z7 d% S
Bit rate mode                            : Constant
2 ?  U3 T% b/ p! YBit rate                                 : 384 Kbps
4 F3 F& X& b( yChannel(s)                               : 6 channels: P  v: T( r- g7 d
Channel positions                        : Front: L C R, Side: LR, LFE' K$ q& Y2 V) b* \- F
Sampling rate                            : 48.0 KHz
) m- o5 B" c: z3 W, N9 G% P0 SFrame rate                               : 31.250 fps(1536 spf)4 L$ n# A' ?% U0 d& B
Compression mode                         : Lossy
5 i$ |1 `, A+ `+ j8 WStream size                              : 328 MiB (8%)8 Z* u5 e$ y: W+ |! P
Title                                    :Captain.Fantastic.2016.1080p.WEB-DL.DD5.1.H264-FGT1 a/ q: W3 s* J# r, W
Language                                 : English4 k7 N1 X8 i6 x' E  l
Default                                  : Yes
& S6 H/ [0 P+ C9 P( \. V* L" uForced                                   : No! O/ c8 ?, `4 R+ n6 R+ d+ t
Text
. y# c' O' v/ ~) E% D( q4 kID                                       : 3
. o$ R$ {6 U5 P5 {+ |  ~! c. IFormat                                   : UTF-8
! I6 {% ]- K# Q# gCodec ID                                 : S_TEXT/UTF8  u4 R8 x+ N& \8 t
Codec ID/Info                            : UTF-8 Plain Text
& \( G& k, [( r9 l) zLanguage                                 : English
+ R2 i3 Y" d' M8 A0 H9 q, nDefault                                  : Yes/ T# c& y7 W8 P! n& t2 y) h+ T! x
Forced                                   : No
; r) Y2 R+ y2 v$ C  {) WMenu
7 ?6 `( g+ G. d, {00:00:00.000                             : en:13 m5 d: F' G/ x. E
00:05:15.000                             : en:2
# b, S( y: m# S7 u5 [& L6 K00:11:13.000                             : en:3
- \; A3 J- K+ u) Z" ]00:17:35.000                             : en:4
* }2 A. X7 b. f# q: L00:25:21.000                             : en:5: y- X8 ~. Q  F1 L- X
00:31:38.000                             : en:6
+ L8 d3 d8 u& w1 _# `00:37:42.000                             : en:7
6 v8 q+ X, I+ B) M  P9 z) A00:40:26.000                             : en:85 l. c3 s9 m( K2 [
00:46:11.000                             : en:9. W9 _. H7 l3 c- C( |) a+ P) e
00:54:04.000                             : en:10
2 c& c) S! ^$ \& s00:59:35.000                             : en:11
7 \  b5 f3 i' w" U* J  l01:08:22.000                             : en:125 q, b- h& d/ {6 {! z+ k
01:14:09.000                             : en:132 k) l2 Q/ Q. e
01:20:19.000                             : en:14& s' C0 t3 N! ~  c8 a  \$ y4 ?8 T9 n
01:24:31.000                             : en:15
, V+ @( f! R1 u% J01:30:20.000                             : en:168 p2 e2 V9 n) O
01:36:53.000                             : en:175 K0 b3 L/ h% J7 I* L5 Y- h
01:43:04.000                             : en:18
5 h" a) t- W: m4 X01:48:24.000                             : en:196 }5 \' y& Z1 d+ ^' f0 K
01:52:48.000                             : en:20

8 Q$ K  J- w2 |4 t2 s/ U+ b8 q% B8 J: J+ N! A  H  d( A
神奇隊長. MKV.torrent (70.13 KB, 下載次數: 8374)

尚未簽到

發表於 2016-10-12 18:59:49 | 顯示全部樓層
VIP精品區,資源無限好賺金任務區,輕松賺金幣
加入VIP,享受高級特權宣傳賺金又升級,超級棒
精妙絕倫的精品,感謝啊!期待你更多更好的創作哦!

尚未簽到

發表於 2016-10-13 06:15:20 | 顯示全部樓層
偶像^^小生一直都在關注你的原創!小生對你之仰慕如滔滔江水連綿不絕!

尚未簽到

發表於 2016-10-13 12:49:08 | 顯示全部樓層
精妙絕倫的精品,感謝啊!期待你更多更好的創作哦!

尚未簽到

發表於 2016-10-14 01:03:40 來自手機 | 顯示全部樓層
偶像^^小生一直都在關注你的原創!小生對你之仰慕如滔滔江水連綿不絕!

尚未簽到

發表於 2016-10-14 14:24:59 | 顯示全部樓層
精妙絕倫的精品,感謝啊!期待你更多更好的創作哦!

尚未簽到

發表於 2016-10-14 16:18:19 | 顯示全部樓層
偶像^^小生一直都在關注你的原創!小生對你之仰慕如滔滔江水連綿不絕!

尚未簽到

發表於 2016-10-14 19:15:03 | 顯示全部樓層
精妙絕倫的精品,感謝啊!期待你更多更好的創作哦!

尚未簽到

發表於 2016-10-14 23:25:21 | 顯示全部樓層
偶像^^小生一直都在關注你的原創!小生對你之仰慕如滔滔江水連綿不絕!
累計簽到:1 天
連續簽到:1 天
發表於 2016-10-15 09:03:03 | 顯示全部樓層
精妙絕倫的精品,感謝啊!期待你更多更好的創作哦!

回復樓主 親!! 下午好,中午養足了精神嗎?讓我們一起渡過下午茶時間,WK有您更精彩!

 分享同時學會感恩,一句感謝的話語,就是最大的支持!  歡迎交流討論
您需要登錄後才可以回帖 登錄 | 立即注册

本版積分規則

c重要聲明:本論壇是以即時上載言論的方式運作,WK論壇對所有言論的真實性、立場及版權等,不負任何法律責任。而一切言論只代表發佈者個人意見,並非本網站之立場,讀者及用戶務必自行判斷內容之真實性。 由於本論壇受到「即時上載言論」運作方式所規限,故不能完全監察所有言論,若讀者及用戶發現有內容出現「真實性、立場及版權」等問題,請聯絡我們:[email protected]論壇有權刪除任何言論(刪除前或不會作事先警告及通知)| SiteMap[網站地圖]

發表新帖 返回頂部