WK綜合論壇, WK综合论坛

查看:83 回復:2 發表於 2021-1-14 17:21:59
本主題由 212love 於 2021-1-15 23:19 刪除回復
累計簽到:2124 天
連續簽到:1 天
發表於 2021-1-10 10:38:50 | 顯示全部樓層 |閱讀模式
VIP精品區,資源無限好賺金任務區,輕松賺金幣
加入VIP,享受高級特權宣傳賺金又升級,超級棒

勇士迷蹤 The.Legion., 2020.[MKV / 4.38G] [複製鏈接]

影視分享
分類: 電影
題材: 動作 冒險 曆史 
地區: 美國 
語言: 英语 
格式: MKV 
年份: 2020
資源: BT资源
1.jpg
8 ]4 {: S6 U) j# t% @8 G( l
% K0 g+ M$ U. K& g6 q! ^5 m◎译  名 勇士迷踪/The Legion/军团的踪迹
* q. v3 t% s  b  b* \9 x/ Y◎片  名 Legionnaire's Trail" @6 E  C4 d6 p
◎年  代 20207 ?  F) p$ H0 p* L0 L; _2 _
◎产  地 美国
+ o" P1 J# \! p  `: p8 {+ R9 Y◎类  别 动作 / 历史 / 冒险
* y1 F7 _+ z0 S. O' M+ v◎语  言 英语
# D& P: J+ C' t, n- _, t* y◎上映日期 2020-05-08(美国)
1 H1 H+ }! M+ b+ i/ h◎IMDb评分 /10 from 527 users
+ r9 R4 L. c- `- M& h◎IMDb链接 https://www.imdb.com/title/tt8318284/
) c' {3 V6 p4 e/ D0 G9 t: U◎豆瓣评分 /10 from 0 users1 N7 A2 F( |, S1 s3 d
◎豆瓣链接 https://movie.douban.com/subject/34445270/6 B6 u& S, O- F2 e; `: b/ L. ]3 B8 E
◎片  长 96分钟
; b' y3 @# f  R' H" U1 t# Q8 ^◎导  演 何塞·马根 Jose Magan
' j0 h* I4 N$ I: B; V0 m◎编  剧 Alberto Vázquez Figueroa / 何塞·马根 Jose Magan
2 A# W$ [( k0 B. F# y6 T◎主  演 米基·洛克 Mickey Rourke
  {$ r# l; c1 u0 Z& Z0 v4 n' c      白灵 Ling Bai( ?  `$ a- j  x" ?+ ?1 i* X
      弗拉基米尔库利奇 Vladimir Kulich5 I0 |+ p' `" I/ }7 w
      乔昆姆·德·阿尔梅达 Joaquim de Almeida
1 W! E! I* W" f- e6 t5 ]- t/ ~0 f      马克西姆·马特维耶夫 Maksim Matveev
; ~7 @& `5 Q5 c  S
1 K) K$ _8 N9 @- N7 N  C& p' l5 D. d◎标  签 白灵 | 跑 | 米基洛基 | [歐美]. [/ Y% E$ A/ g
* A3 k$ T8 J/ o' Y' [: {7 {) K4 I8 T
◎简  介 6 p2 L- Z) [- R' T' s
2 Y0 |; b. h3 A# n! ~
  Nero's reign. The invasion of Parthia has been a fiasco. Two Roman legions have been brought to a stand still in the snowy mountains of Armenia, and the men are dying slowly in the cold. The rest of the Roman army is in Syria, only two weeks march away but the mountains swarm with Parthian patrols. Noreno, a half-Roman, is entrusted the mission of crossing the mountains to ask for help. However, he might not be the best option, he's an expert runner, but he despises Rome.# ?+ s$ K# z- m" f4 n) O
Video
$ a, i: r& p2 S, O: R5 sID : 12 u5 s* {1 i3 b$ H& U
Format : AVC" g- A+ Z( t1 A: ^6 t! D
Format/Info : Advanced Video Codec
7 l  M* Q, i) \/ o+ fFormat profile : [email protected]
1 d9 y7 x# Q4 v2 u2 s. S9 {7 |; T4 g& wFormat settings : CABAC / 5 Ref Frames- R+ [! k. w$ _7 P8 ?
Format settings, CABAC : Yes, u) S: p" t: }/ Y* d  z
Format settings, Reference frames : 5 frames
& f) f* g) ]$ hCodec ID : V_MPEG4/ISO/AVC  C" [$ A8 {# O7 q% g
Duration : 1 h 35 min
. r* Y: b1 K: _: |' f2 |; T6 Y& dBit rate : 4 803 kb/s
1 g7 @! W" E6 L0 zWidth : 1 920 pixels$ `* c4 @! u6 H2 i5 c
Height : 804 pixels
; e/ L/ h+ x3 l/ V' \Display aspect ratio : 2.40:1$ u/ z) ?1 c: P5 P7 W# x7 D1 D5 N
Frame rate mode : Constant
" t+ C/ _1 ~0 C' `3 ]! `5 CFrame rate : 23.976 (24000/1001/189150) FPS
3 h4 c8 u, I, b  ?$ M3 FColor space : YUV
! x' _9 F0 W" o" T8 eChroma subsampling : 4:2:07 o9 e4 z$ v2 q% h* _
Bit depth : 8 bits
9 q1 a5 ~2 K/ y: ~; S- iScan type : Progressive
3 K8 @$ S2 ?7 \, ^+ @Bits/(Pixel*Frame) : 0.130
3 Z! ~* e  [( n# o; FStream size : 3.21 GiB (73%)
0 C/ X7 Z% [4 ?0 q$ iWriting library : x264 core 161 r3027 4121277
/ Z: M0 [- w4 {# v1 n7 kEncoding settings : cabac=1 / ref=5 / deblock=1:-3:-3 / analyse=0x3:0x133 / me=umh / subme=9 / psy=1 / psy_rd=1.00:0.00 / mixed_ref=1 / me_range=16 / chroma_me=1 / trellis=2 / 8x8dct=1 / cqm=0 / deadzone=21,11 / fast_pskip=0 / chroma_qp_offset=-2 / threads=25 / lookahead_threads=2 / sliced_threads=0 / nr=0 / decimate=1 / interlaced=0 / bluray_compat=0 / constrained_intra=0 / bframes=3 / b_pyramid=2 / b_adapt=2 / b_bias=0 / direct=3 / weightb=1 / open_gop=0 / weightp=2 / keyint=250 / keyint_min=23 / scenecut=40 / intra_refresh=0 / rc_lookahead=60 / rc=crf / mbtree=1 / crf=17.0 / qcomp=0.60 / qpmin=0 / qpmax=69 / qpstep=4 / ip_ratio=1.40 / aq=1:1.002 @5 D6 l# ?* G
Language : English
; `) h9 g" A, `6 y% H  X0 D8 lDefault : Yes7 o! v: @) X! [( L: _+ M$ p. A) e
Forced : No
: f& b3 k+ C. R* x4 q' C) E" |, f
7 k8 h, ?9 l; oAudio! U: q+ \- q  c  ]& w+ n7 d# G  S
ID : 22 p' Z% p: Z, F9 a- g/ I, S
Format : DTS XLL# q: T# }+ r  J, v, f2 ?
Format/Info : Digital Theater Systems, C) f& d1 r& T* n+ A& V
Commercial name : DTS-HD Master Audio
: q: Z3 w% v, n- a. Y- |Codec ID : A_DTS' n. O, j5 X9 c. c7 M
Duration : 1 h 35 min
. r! v; A# Y  w. D: W. G7 g& r: L. ]' LBit rate mode : Variable
; F- v/ N3 X9 I: f3 X; b3 UBit rate : 1 732 kb/s5 l  \# L( m: g: _) }
Channel(s) : 6 channels
& G% Q9 [4 R1 VChannel layout : C L R Ls Rs LFE0 `) u& L' Z% G/ G8 L+ {
Sampling rate : 48.0 kHz
, I& i4 C' R8 N, V( Z1 n, pFrame rate : 93.750 FPS (512 SPF)  N2 s4 M6 V. E6 S9 c1 W
Bit depth : 16 bits
$ I, K  L6 _4 y6 |, mCompression mode : Lossless$ T% e( G/ J4 v9 t" {/ H( N% y. k
Stream size : 1.16 GiB (26%)
* Z5 ?7 S# ]( j% v- L6 @Language : English! L, A! v/ R. ]; N, N
Default : Yes
2 i6 _: o; l- e' LForced : No
4 e4 }( v1 X+ N6 y( T/ g2 s  P( k. u% c! t* ]6 \  k2 ?
Text
3 E6 ?5 O5 F; H  DID : 3
' D, d6 m( a7 I0 I5 DFormat : PGS7 M7 i& s" l: Z
Muxing mode : zlib
2 V5 r2 U+ x( O5 GCodec ID : S_HDMV/PGS
8 i! J' p# g8 `: XCodec ID/Info : Picture based subtitle format used on BDs/HD-DVDs
& D" X8 ?5 `8 H' m( zDuration : 1 h 29 min
  u0 M! r, i/ I( tBit rate : 15.7 kb/s5 x0 q/ T$ }7 ~8 l- l' a
Count of elements : 1009* ?9 M* ~5 ?- B$ K! X9 l1 \2 ]# ?
Stream size : 10.1 MiB (0%)" |+ A; e4 W7 d, y2 e* Q. D. }& H
Language : German
, I# L, d( }& F4 [2 }6 p) f5 `Default : No
3 t: k8 z3 O/ \( M5 y  L  WForced : No
3 _) E( x. S; [2 w
6 \- N2 L: c/ t  T" l0 D- fMenu
# Y0 A7 @6 C' u( J% X% C8 K# D00:00:00.000 : en:Kapitel 01
# z9 O5 i7 p- Y# z00:04:11.084 : en:Kapitel 02
* |% v/ F. w1 z$ Q# s' V# R4 q: Y00:11:20.430 : en:Kapitel 03
  k1 W' d( n" S/ F00:21:18.694 : en:Kapitel 04
! [! B/ Q0 w/ q# w# S4 J4 J: T00:28:52.105 : en:Kapitel 05, P8 A2 o% U% @1 T! U0 [# E! O0 i& D
00:37:21.448 : en:Kapitel 06
/ G' M  n/ z6 a5 ~00:43:15.384 : en:Kapitel 07
: n# S0 i* F) v5 @& s00:46:50.099 : en:Kapitel 08  ]) j0 l+ F7 f
00:54:44.990 : en:Kapitel 098 _* X! J: p9 i" @. l
01:05:41.229 : en:Kapitel 10
4 N: S! P( N4 F1 y* I- _1 B" y01:17:22.471 : en:Kapitel 11
; F1 k6 o4 W3 i4 ^% ~9 Q01:30:39.100 : en:Kapitel 12

# j$ `% @' h  T7 I/ R9 q1 M& D$ D$ {8 _/ v% Y) c; \
, ^& u9 ~* `9 {

勇士迷蹤. MKV.torrent

44.41 KB, 下載次數: 45

累計簽到:2 天
連續簽到:1 天
發表於 2021-1-10 17:15:35 | 顯示全部樓層
VIP精品區,資源無限好賺金任務區,輕松賺金幣
加入VIP,享受高級特權宣傳賺金又升級,超級棒
感謝大大的辛勞分享!我會繼續在WK關注大大的文章!

尚未簽到

發表於 2021-1-14 17:21:59 | 顯示全部樓層
相信WK因為有你而更加精彩!

回復樓主 親!! 早上好! 心底有WK、心情就會飛翔,心中要個希望、笑容就會清爽!

 分享同時學會感恩,一句感謝的話語,就是最大的支持!  歡迎交流討論
您需要登錄後才可以回帖 登錄 | 立即注册

本版積分規則

c重要聲明:本論壇是以即時上載言論的方式運作,WK論壇對所有言論的真實性、立場及版權等,不負任何法律責任。而一切言論只代表發佈者個人意見,並非本網站之立場,讀者及用戶務必自行判斷內容之真實性。 由於本論壇受到「即時上載言論」運作方式所規限,故不能完全監察所有言論,若讀者及用戶發現有內容出現「真實性、立場及版權」等問題,請聯絡我們:[email protected]論壇有權刪除任何言論(刪除前或不會作事先警告及通知)| SiteMap[網站地圖]

發表新帖 返回頂部