WK綜合論壇, WK综合论坛

查看:114 回復:0 發表於 2021-1-7 10:23:24
本主題由 212love 於 2021-1-14 12:08 刪除回復
累計簽到:2124 天
連續簽到:1 天
發表於 2021-1-7 10:23:24 | 顯示全部樓層 |閱讀模式
VIP精品區,資源無限好賺金任務區,輕松賺金幣
加入VIP,享受高級特權宣傳賺金又升級,超級棒

結束開始 Endings.Beginnings., 2019.[MKV / 4.64G] [複製鏈接]

影視分享
分類: 電影
題材: 劇情 
地區: 美國 韓國 
語言: 英语 
格式: MKV 
年份: 2019
資源: BT资源
1.jpg ) l, Q4 Y* D  x" c
% T- V4 [! j4 p& k- P
◎译  名 结束,开始/No No No, Yes/不不不,好的/爱情,是开始还是结束(台)
; x# J& |) k. h+ r◎片  名 Endings, Beginnings; w2 h. M8 w, @# L
◎年  代 2019
4 F! I8 ~" W& U5 t( M% r◎产  地 美国,韩国
- q) U1 }* ]3 T# ]# ^& S◎类  别 剧情
3 t; U1 X: n: G6 I+ D! q◎语  言 英语/ p8 W' @% u3 y( u! V1 I9 k
◎上映日期 2019-09-08(多伦多电影节) / 2020-04-17(美国)
( R, E) j( l8 U" @+ y4 R◎IMDb评分 5.7/10 from 2474 users( d# g$ p! s4 O& L" Y9 U5 \% k: z
◎IMDb链接 https://www.imdb.com/title/tt9147456/
* B% A0 c" G+ i◎豆瓣评分 5.3/10 from 454 users
" ?" c, ^/ y. j: v/ [* _◎豆瓣链接 https://movie.douban.com/subject/30355047/* R6 P2 E" A; A4 B' V
◎片  长 110分钟
' q1 p7 B: E4 Z! D+ ^◎导  演 德雷克·多雷穆斯 Drake Doremus9 Y2 M" N+ F8 ~& D2 p5 @% O8 a
◎编  剧 德雷克·多雷穆斯 Drake Doremus- S# ?! R. n% p
◎主  演 谢琳·伍德蕾 Shailene Woodley
% t3 {* r+ ^) _1 l/ x      詹米·多南 Jamie Dornan
9 ^2 \4 G! ]: d+ c4 T      塞巴斯蒂安·斯坦 Sebastian Stan
- i2 n4 W+ q& V' S- L      马修·格雷·古柏勒 Matthew Gray Gubler) }! S" w1 b& Z  X
      林赛·斯隆 Lindsay Sloane# V! p1 n' F1 [
      沙米尔·安德森 Shamier Anderson
- v, v8 C- T1 V: m: k) ^3 X! [      加勒特·科菲 Garrett Coffey
* ?" {- ^) u% r+ N4 c      瑙伦·德沃芙 Noureen DeWulf
+ c. K3 E. A! H. W7 L      玛丽·费伯 Mary Faber' `- ]4 I+ n3 Y3 C, H
      凯拉·塞吉维克 Kyra Sedgwick
" R$ W) L  W2 J% r      朱利安·沃克斯 Julian Works9 H$ b- w% w" m$ h* J4 u4 M

) J! |: _/ ~( R/ {5 s/ l◎标  签 塞巴斯蒂安·斯坦 | SebastianStan | 美国 | 爱情 | 剧情 | 詹米·多南 | 2019 | 美国电影0 E" z8 e5 c  @6 c
6 ~! g$ S4 y7 K# u2 c& g7 a5 ^
◎简  介
0 x* P; V! U  c, q4 ?( l+ q+ Q  s: w9 ^9 i
  影片看剧情很多雷穆斯,他也和小说家Jardine Libaire一起写剧本,聚焦伍德蕾饰演的三十多岁的女子Daphne在一年内遭遇的爱和心碎,她将以一连串事件、往想不到的方向去揭开自己人生的秘密。4 d6 Y. c6 @7 I$ V) ?8 T5 J
Video
0 l# `* M5 N. `, G- R" {ID : 1
: v* Z8 X* h( m$ d4 ]" xFormat : AVC
. F- Z& e; A8 hFormat/Info : Advanced Video Codec$ D1 L: _+ C! W
Format profile : [email protected]  M3 n, E! P& z  P/ M/ \) e
Format settings : CABAC / 4 Ref Frames9 i* K" F, H; g! b3 N* J( g$ u2 M' H
Format settings, CABAC : Yes0 t5 q2 z4 D% ~- z5 _/ Q0 U
Format settings, Reference frames : 4 frames
2 ]: R( C" R: hCodec ID : V_MPEG4/ISO/AVC
0 w/ v; E: \4 c9 ZDuration : 1 h 50 min' |, }0 ^. s2 w( B( v; R
Bit rate mode : Constant
. ]. W/ k; N% S) eBit rate : 5 369 kb/s3 l) V7 ]6 X1 i/ Z
Nominal bit rate : 10 000 kb/s! g) ^- H, ~: o! `" @  U( D
Width : 1 920 pixels
! w+ d5 ?: M: Q1 uHeight : 816 pixels: e* V# Z. l8 Y5 p6 [% K! \6 C
Display aspect ratio : 2.35:1
2 T8 e, S, O( p+ u% m7 o) X6 n* NFrame rate mode : Constant4 H$ t3 Q+ S3 L6 f; x
Frame rate : 23.976 (24000/1001/189150) FPS
$ n# }" E8 S9 U2 s8 AColor space : YUV1 _1 H$ Q" U3 S$ p+ _/ A$ h  b3 Y
Chroma subsampling : 4:2:08 \, J; X+ j3 b' C6 l
Bit depth : 8 bits5 e1 n4 i- ?5 W( K" q) H8 Z3 o
Scan type : Progressive# R: Z" e' n. E. N" p" h3 x4 I; h8 \
Bits/(Pixel*Frame) : 0.143
% N. w5 c7 F8 ^5 i" G9 Y; zStream size : 4.15 GiB (89%)0 P& e; c, o$ p( K( W8 i- y
Default : Yes- @0 b. @7 A& \1 A& C( o0 p+ Y
Forced : No
3 N1 S, y& b9 O$ D( NColor range : Limited
4 a1 l6 U6 ?/ q: O: j& @1 [2 EColor primaries : BT.709
9 J& k5 N5 X2 z) q- hTransfer characteristics : BT.709
. A$ e4 f* o/ e6 W- G$ R" M: eMatrix coefficients : BT.709
/ J) a8 q3 G6 J! Q2 J
- c' E. W5 Y( O  s* jAudio
( @7 W4 s/ ]! x. O+ r. dID : 2& C" c, O: J! G
Format : E-AC-3- ~( l1 }9 s: H" z" l* n
Format/Info : Enhanced AC-3
# L* Q+ ^0 p- S( `% mCommercial name : Dolby Digital Plus- ^$ h9 |9 z( w* e8 n5 V
Codec ID : A_EAC35 E5 ?3 r/ Q# {8 p3 ]! J
Duration : 1 h 50 min  O* m4 ~& W/ J! p; b
Bit rate mode : Constant. S. Z6 G6 h' m5 ^9 k
Bit rate : 640 kb/s
. y+ t: `# H) t7 {3 WChannel(s) : 6 channels
, z( O% ^+ _* @, y$ F: GChannel layout : L R C LFE Ls Rs, W6 [& P5 ~( w
Sampling rate : 48.0 kHz
0 K! y1 k  f6 wFrame rate : 31.250 FPS (1536 SPF)& n  i* a( I7 G
Compression mode : Lossy' {5 P9 v- z6 C# o
Stream size : 506 MiB (11%)
0 ], C3 ~9 i4 D' YLanguage : English; X5 n2 L" B! D) r1 P: R
Service kind : Complete Main; P. g: I% |0 h4 c; U* A& h  \
Default : Yes
8 @7 c' |( s0 r! ]8 t* T8 NForced : No
5 J7 r1 v+ Q- x' u: n$ ?  `$ R% s  m7 L* O, X+ k' v! b
Text
/ u# j& @4 Q0 i1 k' }1 d+ q! |# D4 xID : 3
5 N' |5 S" z! d" W9 ~* K$ i' ~Format : UTF-8
. t: t4 R7 d; v/ m: y$ qCodec ID : S_TEXT/UTF8
. w2 a: [" d0 dCodec ID/Info : UTF-8 Plain Text! I. M% g& F& d0 T
Duration : 1 h 49 min
2 i) `( J# B3 j- PBit rate : 63 b/s2 k, m( m7 A9 \  g6 F7 l& E4 R5 k
Count of elements : 1726  R6 S. x1 |8 }+ ^. R7 R3 Y. K4 X
Stream size : 50.6 KiB (0%)
5 I8 P( D! c- N: \Title : SDH
# u: {& P  b; K* SLanguage : English- U- r1 S2 f' C& W5 b
Default : No
6 l) r5 a2 I: b! j! W$ S& s; hForced : No
* _* y0 Z! o, A) y
( L; q2 A" t  C, \5 g% U8 d) v/ [- a! pMenu6 A1 P1 ~; Y6 G8 @8 M4 N. _, X
00:00:00.000 : en:Studio Logo
/ S( I  ]7 l3 a& T7 {00:00:48.000 : en:Opening Credits
! Z: \3 }  @7 M: l0 c& G+ y00:00:59.000 : en:Scene 3
! T$ y$ b& w* p00:05:09.000 : en:Scene 4
$ N! d, L7 ?: }0 A3 ~00:09:04.000 : en:Scene 5" G0 k4 x$ h: \( l  m
00:12:06.000 : en:Scene 6
! v! M% L0 c' o00:20:31.000 : en:Scene 7
4 u; d1 A( V) `! n+ z6 G1 }+ G00:28:59.000 : en:Scene 8% X# K' d5 s# h' R' w- G
00:37:24.000 : en:Scene 9+ H; e# b( C# ?: J5 Q8 @5 S8 i
00:39:54.000 : en:Scene 10
3 o  l1 q. j$ }+ Y# R% P3 X- k, @! b& a00:45:06.000 : en:Scene 11
* I8 L; [- h$ Q00:53:19.000 : en:Scene 12
9 L$ h6 V: S; i, N00:56:08.000 : en:Scene 133 A, _& Z1 m- i) \
01:03:45.000 : en:Scene 145 L& Z6 }+ j3 _! C* s* A6 J# G" R
01:12:27.000 : en:Scene 15
! i: j, `0 ^: ^1 |  |- ?01:19:56.000 : en:Scene 16
$ q5 E6 U& U# d01:27:02.000 : en:Scene 17
( q, F8 U3 D$ B9 k! g3 \01:31:01.000 : en:Scene 18
. G& ^' P$ m" C; _& z01:36:09.000 : en:Scene 19- x' U" R/ E- n9 L4 S' ~
01:38:25.000 : en:Scene 20' G* v) r7 S" A: k
01:45:34.000 : en:End Credits
1 b, j0 h/ \( T

9 m8 H3 a  I- V' F; W
5 j6 I. j0 F3 m: w. N

結束開始. MKV.torrent

46.98 KB, 下載次數: 4

回復樓主 親!! 早上好! 心底有WK、心情就會飛翔,心中要個希望、笑容就會清爽!

 分享同時學會感恩,一句感謝的話語,就是最大的支持!  歡迎交流討論
您需要登錄後才可以回帖 登錄 | 立即注册

本版積分規則

c重要聲明:本論壇是以即時上載言論的方式運作,WK論壇對所有言論的真實性、立場及版權等,不負任何法律責任。而一切言論只代表發佈者個人意見,並非本網站之立場,讀者及用戶務必自行判斷內容之真實性。 由於本論壇受到「即時上載言論」運作方式所規限,故不能完全監察所有言論,若讀者及用戶發現有內容出現「真實性、立場及版權」等問題,請聯絡我們:[email protected]論壇有權刪除任何言論(刪除前或不會作事先警告及通知)| SiteMap[網站地圖]

發表新帖 返回頂部