WK綜合論壇, WK综合论坛

查看:250 回復:0 發表於 2020-10-17 12:38:04
本主題由 212love 於 5 天前 刪除回復
累計簽到︰2096 天
連續簽到︰1 天
發表於 2020-10-17 12:38:04 | 顯示全部樓層 |閱讀模式
VIP精品區,資源無限好賺金任務區,輕松賺金幣
加入VIP,享受高級特權宣傳賺金又升級,超級棒

正義的子彈 Bullets.of.Justice., 2019.[MKV / 5.80G] [複製鏈接]

影視分享
分類: 電影
題材: 犯罪 恐怖 其它 
地區: 美國 
語言: 英语 
格式: MKV 
年份: 2019
資源: BT资源
2.png
$ f* D) `5 C6 Y, ]9 X$ K8 Y" Z# F- G1 f5 R& c* M8 d
◎译  名 正义的子弹
/ y  A7 ^2 k6 o+ @  D4 y+ v; c◎片  名 Bullets of Justice$ ^$ t0 i$ o# L3 L$ d" H: J9 Q
◎年  代 20197 ~/ l. v2 E, t8 R$ P- Z
◎产  地 美国  a+ p3 ?, @9 A2 O! k2 R' p
◎类  别 恐怖 / 犯罪 / 黑色电影
! N  _5 o2 ~3 }; }6 G& P6 k◎语  言 英语
) n/ l' d$ Y3 o+ v/ b8 x  l◎上映日期 2017-01-13
/ y( |' j6 G: d- l) h1 ~◎IMDb评分 6.2/10 from 83 users
1 d& m4 X( [" v2 T* p6 v+ _( S  j* V◎IMDb链接 https://www.imdb.com/title/tt6421398/
0 P; t; Q5 J& o( O  M◎豆瓣评分 /10 from 0 users5 W. _" F* Y* s( b/ |  |
◎豆瓣链接 https://movie.douban.com/subject/26966754/# f6 @; n; r& y
◎导  演 瓦列·米利夫 Valeri Milev0 [' D6 y! C: z4 @- ?! L0 R
◎编  剧 瓦列·米利夫 Valeri Milev6 }: x0 U# r. C0 g! S  Y
◎主  演 丹尼·特雷霍 Danny Trejo! H* G- f% ?, m+ \  x$ [5 V7 i3 i
: q! @" J* V1 Z9 ^  c- R- w
◎标  签 正义的子弹 | 很想看 | 恐怖 | 超刺激 | 惊悚 | 科幻 | 魔幻 | 66# \- G) r2 j" @; {6 p
% T, s1 I1 N4 u( W' q
◎简  介 ' ^3 P; i* t5 O

4 C8 D, M  k5 _8 t- q  在第三次世界大战期间,美国政府发起了一个秘密的项目代号为“陆军培根”,以创造超级士兵近交人与猪。25年后,一种叫做“枪口”已经占据食物链的顶端,吃和人类饲养动物一样。罗布正义是一个前赏金猎人工作的最后一行人类抵抗-一组幸存者躲藏在核掩体深处地下。他的任务是找出枪口上台并消灭他们。
: j  E7 U1 A0 }( ]' p- rVideo& e/ T8 V4 Q% ?$ G
ID : 1
* Z9 {% D3 u# Y! ~Format : AVC
/ o  j4 A" N2 D7 ?- ?Format/Info : Advanced Video Codec! |! b; R; A, Z$ s
Format profile : [email protected]
" g9 B; H4 R- w* wFormat settings : CABAC / 4 Ref Frames
# F- E8 P) z* AFormat settings, CABAC : Yes
: ^. n" [# e, ?$ s6 HFormat settings, Reference frames : 4 frames; P5 a; s1 T. p4 ^1 Y9 O, }
Codec ID : V_MPEG4/ISO/AVC) E6 Q1 I1 O# S- J" ~( t# A
Duration : 1 h 19 min2 t3 f  P2 D- y: `$ e
Bit rate mode : Constant1 x4 v1 e- H+ ?. T2 a/ w
Bit rate : 10 000 kb/s
) \: R( c: S9 B  @( kWidth : 1 920 pixels
* }9 h' ?' o! o. e5 I5 vHeight : 816 pixels8 n% u7 g: \% z$ H0 X. _( c1 b2 i
Display aspect ratio : 2.35:1
. R2 P0 y5 d# T  wFrame rate mode : Constant' o; D0 ]# @; q; ?% e$ b/ x4 m# M+ o
Frame rate : 24.000 FPS  X" m; Y: V3 k) h
Color space : YUV
0 f8 ^+ @' X- H* ]. OChroma subsampling : 4:2:0
. G4 t% T& ?+ nBit depth : 8 bits# R2 r1 t0 B# {
Scan type : Progressive$ ]8 P# o/ |  _' s: `
Bits/(Pixel*Frame) : 0.2663 h& o. X7 N7 [; |6 J7 b  ]! r
Stream size : 5.44 GiB (94%)
2 H3 O, L( r1 i6 I0 v3 q$ q6 eDefault : Yes; i9 _9 Y! U* x6 H9 s' \- l
Forced : No. H: X- v3 L0 b5 Z
Color range : Limited
6 g. g( y  B* m# SColor primaries : BT.709
8 P* V9 t9 S0 W: o3 lTransfer characteristics : BT.709
0 X* f: x/ I% E) p2 FMatrix coefficients : BT.709& O$ o" l- N7 R( v
% A: Z$ ?4 M: c+ ?
Audio6 d1 Q$ l3 F- m6 x$ f  b
ID : 2. x8 x+ `- W  f4 h
Format : E-AC-38 d) |& @. }* d& ?
Format/Info : Enhanced AC-3& G3 x2 O- ~: i5 p; W: a( S7 ~
Commercial name : Dolby Digital Plus6 p& x7 s& g) S9 n3 }+ n0 _
Codec ID : A_EAC3
' E5 H9 d) n+ E% @9 W3 z% nDuration : 1 h 19 min
7 |7 c1 J* z' H: ^) D8 o: xBit rate mode : Constant
0 X. F+ v4 `6 W. `Bit rate : 640 kb/s
- K* V: x; ~+ v" d! R% e# ZChannel(s) : 6 channels/ z" `  r' {& v$ Y3 H" y! W
Channel layout : L R C LFE Ls Rs
7 e& n2 d4 R9 Q4 F- ]  k# V5 F$ s6 S  RSampling rate : 48.0 kHz: N+ G% p0 \% \, ?! \+ R
Frame rate : 31.250 FPS (1536 SPF)
% A# j  x5 o" l; B$ @* HCompression mode : Lossy
2 G- ~/ V' I# s" v. P; MStream size : 363 MiB (6%)
/ u9 I; q$ m1 c- qLanguage : English; N3 K4 d" r1 w5 d
Service kind : Complete Main7 H1 U8 K% n; V
Default : Yes
& t* Q) ~/ D5 F3 V2 TForced : No
' g+ k& s) T" S( ~9 q
1 ]! v8 [( ^/ M) S, L3 {Text! B( c% h2 w2 e# v0 D
ID : 3
. n1 i& n5 \8 jFormat : UTF-8
, @2 n# J0 q* w# O  z. ~1 J2 ECodec ID : S_TEXT/UTF8) p. @) P$ B# |9 N
Codec ID/Info : UTF-8 Plain Text6 w* T) Q0 B: i6 U
Duration : 1 h 19 min# {7 v" H6 e9 f: F0 h
Bit rate : 26 b/s
" q; H1 @7 d) ]0 ^2 eCount of elements : 632+ I& X; u3 p. L' C5 H
Stream size : 15.6 KiB (0%)
( Q0 V, R# i1 o+ e6 G% LTitle : SDH/ U! c+ ]# b5 c7 }, a( C% l, ^
Language : English2 G1 x/ G2 {6 c% r" r' d# X
Default : No

0 o% X* n8 @' N8 c) {
9 n7 k  g1 N& s: p  `9 o/ q  V; v3 t# C7 ~

正義的子彈. MKV.torrent

29.54 KB, 下載次數: 75

回復樓主 親!! 下午好,中午養足了精神嗎?讓我們一起渡過下午茶時間,WK有您更精彩!

 分享同時學會感恩,一句感謝的話語,就是最大的支持!  歡迎交流討論
您需要登錄後才可以回帖 登錄 | 立即注册

本版積分規則

c重要聲明:本論壇是以即時上載言論的方式運作,WK論壇對所有言論的真實性、立場及版權等,不負任何法律責任。而一切言論只代表發佈者個人意見,並非本網站之立場,讀者及用戶務必自行判斷內容之真實性。 由於本論壇受到「即時上載言論」運作方式所規限,故不能完全監察所有言論,若讀者及用戶發現有內容出現「真實性、立場及版權」等問題,請聯絡我們:[email protected]論壇有權刪除任何言論(刪除前或不會作事先警告及通知)| SiteMap[網站地圖]

發表新帖 返回頂部