WK綜合論壇, WK综合论坛

查看:95 回復:3 發表於 5 天前
本主題由 212love 於 3 天前 解除高亮
累計簽到︰1995 天
連續簽到︰1 天
發表於 5 天前 | 顯示全部樓層 |閱讀模式
VIP精品區,資源無限好賺金任務區,輕松賺金幣
加入VIP,享受高級特權宣傳賺金又升級,超級棒

寶劍與權杖 The.Warrior.Queen.Of.Jhansi., 2019.[MKV / 6.78G] [複製鏈接]

影視分享
分類: 電影
題材: 劇情 
地區: 英國 
語言: 英语 
格式: MKV 
年份: 2019
資源: BT资源
1.jpg
" W5 n1 t+ K0 r7 j4 o0 b2 r, [. `5 ]& J5 P: d
◎译  名 宝剑与权杖 / Swords and Scepters / Swords and Sceptres: The Rani of Jhansi! o3 k$ g: Z( L+ D6 C
◎片  名 The Warrior Queen of Jhansi+ g) M1 x" L' o
◎年  代 2019% Z7 D: Y% u2 b7 i4 Z) u
◎产  地 英国1 u3 Z: z  [: O7 A5 C7 F( E6 G8 j/ d
◎类  别 剧情
1 t+ V$ l) H) X( t0 m& k' `◎语  言 英语( O2 W; J& j: c# W2 |+ D/ T3 Q
◎上映日期 2019-03-10(温哥华女性电影节)2 e6 ?, i8 Q/ F8 a! ~' ?
◎IMDb评分 3.5/10 from 245 users4 w9 K6 g* }3 s, a
◎IMDb链接 https://www.imdb.com/title/tt6916348; ~. I4 U- t6 X( y
◎豆瓣评分 0/10 from 0 users
8 l6 ]6 b3 q  H2 M◎豆瓣链接 https://movie.douban.com/subject/27191803/+ B$ ?# u: T1 K9 W
◎片  长 103分钟3 @1 w" ~" G3 E* j5 e
◎导  演 Swati Bhise/ L* a7 y: M) D6 j! A: m
◎编  剧 Devika Bhise / Swati Bhise / Olivia Emden
. K. k# R8 q; {, n; p◎主  演 鲁伯特·艾弗雷特 Rupert Everett
# C7 Y: s- d& T: p' U$ V      德里克·雅各比 Derek Jacobi5 O! ~1 R- b+ M: [
      乔迪·梅 Jodhi May
! m5 M, `# V6 T      内森奈尔·帕克 Nathaniel Parker
( }% D0 W8 H& z3 Z9 P$ e. f, G      德维卡·贝斯 Devika Bhise0 Y+ D; S6 S6 c: b4 r' V: {. {  e2 T
      Ben Lamb
$ S$ Z' }8 H3 f# H$ y: {- e8 c( I( e& H% E  d
. S: W' u6 y% P7 P4 B* U. w
◎标  签 印度 | 英国 | 2019年上海国际电影节 | 历史 | DerekJacobi | 剧情 | 2019SIFF | 首选) f+ N7 |# ]; f# D

) i- y: Q+ U4 W0 a' j% q◎简  介# @; R' t) A* w6 l+ \1 |6 E
" W9 y5 l' d4 m2 u# A+ ?" s
  鲁伯特·艾弗雷特、德里克·雅各比加盟[宝剑与权杖](Swords and Scepters,暂译)。主演德维卡·贝斯、乔迪·梅、内森奈尔·帕克等。印度导演斯瓦蒂·贝斯执导,故事聚焦印度“詹西女王”拉克希米巴伊1857年反抗英国东印度公司的起义行动。艾弗雷特、雅各比分饰休·罗斯爵爷、帕默斯顿勋爵。4 N, y8 K& M4 Q" ]+ [2 b: p1 D2 X
Video
; K5 O' A0 h' j* Z$ F1 a) BID : 1/ W/ a+ A, Y- U
Format : AVC2 w8 X- L* O  H' `
Format/Info : Advanced Video Codec
8 o( V. D* _1 S2 U' d8 Q1 FFormat profile : High@L4. i0 i7 w/ m2 L! w
Format settings : CABAC / 4 Ref Frames
) j* u3 ]) t7 H+ B2 ]4 wFormat settings, CABAC : Yes0 N; K: O* ]" ?6 _
Format settings, Reference frames : 4 frames3 C0 H6 V$ I2 p, B. Y
Codec ID : V_MPEG4/ISO/AVC3 S' R" L9 ^* G9 F( F3 Z8 h7 F
Duration : 1 h 42 min' }/ l. m+ n, j) U8 [& S
Bit rate mode : Constant
4 I0 e- u4 `" q: j6 ~Bit rate : 8 813 kb/s
& M, O' c- d8 I# _1 L8 c% V/ rNominal bit rate : 10 000 kb/s
* h. K3 M, b5 X2 ?& f' q% s* c$ E! HWidth : 1 920 pixels
) x! X* l! T) P0 uHeight : 800 pixels2 M9 ^% w; K1 }# X6 A. W
Display aspect ratio : 2.40:1& D' t2 Y$ h$ G7 p! o9 `8 B3 |
Frame rate mode : Constant, a. {' D4 H) D- ]1 K
Frame rate : 23.976 (24000/1001/189150) FPS
; @+ l. N8 n. G2 K  E" Y. h: s4 gColor space : YUV, U6 z, m' d7 j9 x
Chroma subsampling : 4:2:09 H  N% _. W( y0 ]9 m4 p. ^2 z5 U
Bit depth : 8 bits
: Q8 u' U- h7 X1 W$ z  AScan type : Progressive
  z- h3 A& l1 r5 p/ RBits/(Pixel*Frame) : 0.239+ h; n2 E5 y2 S4 |8 N; c9 D+ c7 s
Stream size : 6.32 GiB (93%)' u+ w, P( b& ]! T) Y- V# W
Default : Yes  {$ V5 i1 Q7 Y4 c8 P) q) N
Forced : No& d( @: U' Z# t- z  C& d+ J4 ?$ ~! L
Color range : Limited# a- H0 j! n: U( V% q9 ~, |
Color primaries : BT.709
/ q  I& j& Y7 p4 @; ]/ DTransfer characteristics : BT.709
* y% L1 M0 A3 tMatrix coefficients : BT.709# j, ]' R1 ~3 A3 H

: i, q1 U, d+ g0 k) R4 l% V% q" C6 wAudio
0 q6 A4 L% q8 Y, O: `1 lID : 2
4 J5 L. E6 ?# F+ eFormat : E-AC-38 E8 H2 W# U2 u  W
Format/Info : Enhanced AC-3
* r/ X! N& ^% U$ gCommercial name : Dolby Digital Plus6 s) Y& V9 l8 y( ]- a! ?- V( _
Codec ID : A_EAC3
! Y+ `% O# q- t& }, o" ?" i% {Duration : 1 h 42 min
" f' }. ~7 v3 I- t: r5 jBit rate mode : Constant
" }$ T" ^! V' G# jBit rate : 640 kb/s
% y8 |* w; M" y* m3 O7 _Channel(s) : 6 channels
7 E7 T4 J% j( LChannel layout : L R C LFE Ls Rs+ k1 V- S: n% Y: C% C
Sampling rate : 48.0 kHz1 J: i  ~3 |* z4 @! }$ _
Frame rate : 31.250 FPS (1536 SPF)! Z* N+ y; c/ o% d- ^/ J7 B
Compression mode : Lossy
- |0 `% w, K3 ^/ Y) FStream size : 470 MiB (7%)
- _$ a4 W# J1 X" D+ M* d1 ]Language : English
( ~8 v7 [# O" r9 O7 l# f; g# ~2 S' FService kind : Complete Main9 A; U5 }. x0 u; a
Default : Yes
9 j( J$ C% X0 Z# D3 BForced : No
% W5 Q6 l$ K+ o( M% }4 I5 v: x. M* G4 R
Text #1
4 S: W5 T6 L+ F" q+ u$ x6 o$ ]ID : 3) R- k$ l/ P8 r
Format : UTF-84 M8 h; @& P" H2 r. J
Codec ID : S_TEXT/UTF84 v7 v* H" k9 ?9 L/ H
Codec ID/Info : UTF-8 Plain Text
* J5 @- ~; B, q/ IDuration : 1 h 35 min
% o& G  ~1 p( d& J% EBit rate : 46 b/s, ?; r3 H- S' H, [+ S# d
Count of elements : 1040: x/ f# F) T4 J" l" |" N5 E( t
Stream size : 33.0 KiB (0%)6 Y8 M4 g4 g3 P
Language : English  M+ B6 T: P! R: d" v- F6 `( p
Default : No
! e4 l0 X6 S# d6 P) F$ P+ P0 m' P2 dForced : No. y8 C8 y& F. x! M

: B' x9 o# A% o; c" D: d# O& }Text #2
& O, [& o' y+ g5 F/ o3 IID : 4* X4 s3 Z4 w4 v6 C) T
Format : UTF-8# Q0 `  A" f+ J: e" q
Codec ID : S_TEXT/UTF8' a$ |4 Q* e% y' o
Codec ID/Info : UTF-8 Plain Text
. X" Q2 o# t. J7 QDuration : 1 h 35 min3 C. F* \0 w. K" ?
Bit rate : 53 b/s& q3 Y; z8 P. N( ?: n- n7 l; W
Count of elements : 1259% `' l- F: J" B
Stream size : 37.4 KiB (0%)! H& t' y6 S! I
Title : SDH+ N  L. @5 u6 `3 j
Language : English0 t' b+ f2 `8 \; ~5 }
Default : No8 T1 k) q7 T) a; g/ S0 ]) B' n
Forced : No
) m7 n" L) v3 i4 p9 W

5 w: F8 z( R5 C+ K/ q* I1 \& y. E/ }9 U7 s7 w

寶劍與權杖. MKV.torrent

34.46 KB, 下載次數: 8

累計簽到︰2 天
連續簽到︰1 天
發表於 5 天前 | 顯示全部樓層
VIP精品區,資源無限好賺金任務區,輕松賺金幣
加入VIP,享受高級特權宣傳賺金又升級,超級棒
ddddddddddddddddddddddddddddddddddddd
累計簽到︰1235 天
連續簽到︰24 天
發表於 5 天前 | 顯示全部樓層
感謝大大的辛勞分享!我會繼續在WK關注大大的文章!
累計簽到︰1 天
連續簽到︰1 天
發表於 5 天前 | 顯示全部樓層
Thank you for sharing.

回復樓主 親!! 現在是後半夜!妳失眠啦?餓啦?通宵加班?還是想WK啦?

 分享同時學會感恩,一句感謝的話語,就是最大的支持!  歡迎交流討論
您需要登錄後才可以回帖 登錄 | 立即注册

本版積分規則

c重要聲明:本論壇是以即時上載言論的方式運作,WK論壇對所有言論的真實性、立場及版權等,不負任何法律責任。而一切言論只代表發佈者個人意見,並非本網站之立場,讀者及用戶務必自行判斷內容之真實性。 由於本論壇受到「即時上載言論」運作方式所規限,故不能完全監察所有言論,若讀者及用戶發現有內容出現「真實性、立場及版權」等問題,請聯絡我們:info@waikeung.net論壇有權刪除任何言論(刪除前或不會作事先警告及通知)| SiteMap[網站地圖]

發表新帖 返回頂部