WK綜合論壇, WK综合论坛

查看:242 回復:2 發表於 2020-5-25 21:15:16
本主題由 212love 於 2020-5-25 11:30 解除高亮
累計簽到︰2001 天
連續簽到︰2 天
發表於 2020-5-23 08:46:48 | 顯示全部樓層 |閱讀模式
VIP精品區,資源無限好賺金任務區,輕松賺金幣
加入VIP,享受高級特權宣傳賺金又升級,超級棒

俄羅斯套娃 Russian.Doll., [MKV / 4.85G] [複製鏈接]

影視分享
分類: 電影
題材: 劇情 驚悚 同性 
地區: 美國 
語言: 英语 
格式: MKV 
年份: 2016
資源: BT资源
7486fa033c171.png
  ]: A+ F0 I" E: ]% G' O◎译  名 俄罗斯套娃
+ i  P9 Z/ i3 X8 R2 `◎片  名 Russian Doll
' M2 h3 k- N+ `6 b5 A0 n( D4 p◎年  代 2016
" H1 m' g  J; D% m1 T◎产  地 美国
6 V# Y7 M3 U  A' j, f1 A◎类  别 剧情 / 惊悚 / 同性
% w# d& p, T6 A! |; ]) w◎语  言 英语2 P2 W, B( ?3 L( j' m7 w' w5 X
◎IMDb评分 4.8/10 from 36 users
' ?7 ?, Z/ C* [2 n% _9 y◎IMDb链接 https://www.imdb.com/title/tt5138866
  R  N. F% e' C6 W) J& V/ ]◎豆瓣评分 4.2/10 from 112 users0 Y, F- i9 \9 v1 W, K3 b
◎豆瓣链接 https://movie.douban.com/subject/30245293/1 N; P& J4 b! x* R
◎片  长 82分钟
/ d, t4 m/ u6 H; j9 b/ }◎导  演 Ed Gaffney3 y7 c0 ~$ m) M1 f3 L3 O. ?) m' L
◎编  剧 Ed Gaffney
" T; _: L# \+ K5 Q8 F7 i6 q◎主  演 Kristine Sutherland0 T0 x4 n5 s- g2 l& _
      Marem Hassler! l0 }( ~, ?+ ^! `
      Aly Trasher) m$ c0 A: G. a9 h
( P7 }" @* [- U3 o
9 X: X0 v  C2 f1 o$ w7 B2 z0 G8 e
◎标  签 美国 | LGBT | 2016 | les | 同性 | 美国电影 | 电影 | 爱情
- F8 Q+ w) |4 g( q- }8 \9 Z5 e+ P$ O5 H* p7 T' Y9 J
◎简  介
7 r1 g: l/ Z* F# A' d7 y5 F5 f  b- T* X0 [' V) a6 E
  身处于命运十字路口的人哪4 O' a: C& E+ s2 T/ C7 ~0 o1 }
  如同俄罗斯套娃一般一层套一层却始终无法直视内心的真实
, j$ N- T( Y2 X  由一本名为《俄罗斯套娃》剧本引发的失踪案,牵扯出一桩25年前的迷离案件。7 D4 t; O  E- F5 Z7 B
  女警官Ames因2年前妻子的离世,始终沉湎于过去,无法向前看。在通过女教师Faith的帮助下,# m1 y6 u: F# A; g! u
  对于案件有了巨大的突破,同时也情不自禁得被她所吸引。3 F9 s  o% n( K, d# t
  当揭开整个案件的真相,才知或许我们每个人都是“俄罗斯套娃”。- M( Y% N. y% K  H
  女警官x女教师的Cp,结局He请放心食用~' s: w; J7 E: e4 _: _
  微博@亿万同人字幕组3 K7 e1 [( [, f, c& v) k! Y
  微博@橘里橘气字幕组$ H$ b7 y7 n; E5 X2 E" P+ S
Video0 l- V: d2 l, ?7 ~
ID : 1
1 ?) t4 g3 k' m" rFormat : AVC
; l5 y2 ~' [# N( x) A. u* FFormat/Info : Advanced Video Codec  g6 y5 g) d+ v3 k/ d; _+ i/ c
Format profile : High@L46 P5 }3 H8 N( N1 p; s) E9 U; Y
Format settings : CABAC / 4 Ref Frames
2 o7 I! D6 ~# ?7 p; p3 [Format settings, CABAC : Yes3 [+ @* Q- ?8 W4 T$ Z8 Q' ~
Format settings, Reference frames : 4 frames
2 _, k' {4 e. }  r5 l% e$ MCodec ID : V_MPEG4/ISO/AVC( x* K+ _& g6 q. ^
Duration : 1 h 23 min. ?4 L0 S1 \* K7 r0 n4 Q
Bit rate : 8 129 kb/s& j6 _6 N6 u0 l) v$ k' }$ Y- N
Width : 1 920 pixels- l1 d8 @  C( ^% o5 B( d, H7 F
Height : 816 pixels% l& J3 s) V# o3 E) a9 @
Display aspect ratio : 2.35:1
0 ^, Y0 _8 p+ C6 `Frame rate mode : Constant3 u6 K& _6 @! @# V1 G0 t) ~6 Y
Frame rate : 23.976 (24000/1001/189150) FPS- b, z3 M  _$ J1 n
Color space : YUV
- h7 V7 M9 z- ~. E9 K4 u# j3 PChroma subsampling : 4:2:0
  j$ u" r: R! ^Bit depth : 8 bits  |4 Q: _* X' g8 Y1 W+ D/ ^5 f3 v1 v, W
Scan type : Progressive; a, t( x4 x# ^; D0 x, x
Bits/(Pixel*Frame) : 0.216
5 A) U0 r0 d. a: cStream size : 4.72 GiB (97%)
+ ~; Z. g( Q  e2 g* o, {Language : English
% R+ j/ h! w6 ~# j" V/ R3 NDefault : Yes
4 P9 J; _" B, k" V3 u" x% w  \  d2 @Forced : No. H4 r+ H8 d0 I' E$ ^# s
Color range : Limited5 c( }: T6 P; C& J$ S4 ]5 g
Color primaries : BT.709
9 K! F- R+ n5 u$ L8 ?Transfer characteristics : BT.7091 B4 G% P  ?5 i; _
Matrix coefficients : BT.709, l' b; |! T" t5 A

: F! y; b' k1 gAudio; x1 l8 `& l, U+ w# M
ID : 2
. v" S9 V8 L: z3 G; c' `# dFormat : E-AC-3. I% h% J; F4 E$ F) u6 [
Format/Info : Enhanced AC-3
* \% {( Y9 t  x3 JCommercial name : Dolby Digital Plus
8 @; d& I9 m9 N, K" KCodec ID : A_EAC3: b: n) Y0 k- q7 ]3 [
Duration : 1 h 23 min! q; c7 v8 q3 S5 k" o
Bit rate mode : Constant% K% \3 h. c% N5 ~
Bit rate : 224 kb/s2 [# r* P6 G7 `! |. w, W* _6 W' H% f
Channel(s) : 2 channels7 Q0 P: p, ~9 W* s  l$ r
Channel layout : L R- p# n" ~1 j& B7 G' c) ~' D* f9 t/ [
Sampling rate : 48.0 kHz
: D& T3 ?" N& R1 U9 H8 z; _" M, T% }Frame rate : 31.250 FPS (1536 SPF)" D) y) `: {. h) P7 m8 Y
Compression mode : Lossy; U* ]& J; K" Z, t) h
Stream size : 133 MiB (3%)
' a8 S* T& `! x3 qLanguage : English
6 M: u1 r: g9 v& {# q. S$ mService kind : Complete Main* d7 A% p0 e- q8 N) _
Default : Yes
) |" t% I8 D, `3 T& GForced : No: a8 W- W0 Q* F! j! i

  a4 w9 H; ]$ H- E6 s, @8 N+ cText
3 k7 Y! Q8 P. VID : 3* k  L% z( B& r& P  x
Format : UTF-8
: I: O3 c4 W7 H1 kCodec ID : S_TEXT/UTF8
5 b& Y0 z; S+ A! w% L3 ZCodec ID/Info : UTF-8 Plain Text# v$ ~! R+ S8 z: }0 J3 l
Duration : 1 h 21 min
4 b, ?! x; q/ {+ u" E. l5 Z" KBit rate : 60 b/s
: v- S! X, n/ R' ]: H$ rCount of elements : 1192- ?8 ^, i; K3 A3 I$ U) y
Stream size : 36.3 KiB (0%)6 ]1 E: c' h4 Y# `$ B5 }+ o
Title : SDH" A: l0 v4 T$ ~3 M; {4 e
Language : English3 V, V1 A* b2 q9 o$ F3 D  I
Default : No) f- \* ~* C1 K$ z" ]7 s$ O1 |
Forced : No
1 z; s6 Z* h0 u  a  U# L
, M/ ?, q8 N& P" V3 Y

4 _: e* U4 N, ~) W

俄羅斯套娃. MKV.torrent

49.08 KB, 下載次數: 53

累計簽到︰312 天
連續簽到︰7 天
發表於 2020-5-24 06:33:15 | 顯示全部樓層
VIP精品區,資源無限好賺金任務區,輕松賺金幣
加入VIP,享受高級特權宣傳賺金又升級,超級棒
感謝大大的辛勞分享!我會繼續在WK關注大大的文章!
累計簽到︰2 天
連續簽到︰2 天
發表於 2020-5-25 21:15:16 | 顯示全部樓層
很讚的文章,謝謝咯!相信WK因為有你而更加精彩!

回復樓主 親!! 早上好! 心底有WK、心情就會飛翔,心中要個希望、笑容就會清爽!

 分享同時學會感恩,一句感謝的話語,就是最大的支持!  歡迎交流討論
您需要登錄後才可以回帖 登錄 | 立即注册

本版積分規則

c重要聲明:本論壇是以即時上載言論的方式運作,WK論壇對所有言論的真實性、立場及版權等,不負任何法律責任。而一切言論只代表發佈者個人意見,並非本網站之立場,讀者及用戶務必自行判斷內容之真實性。 由於本論壇受到「即時上載言論」運作方式所規限,故不能完全監察所有言論,若讀者及用戶發現有內容出現「真實性、立場及版權」等問題,請聯絡我們:info@waikeung.net論壇有權刪除任何言論(刪除前或不會作事先警告及通知)| SiteMap[網站地圖]

發表新帖 返回頂部